Subcategories

John Mayer - Where the Light Is - Live In Los Angeles (2008) [BDrip 1080p]

Posted By: juanchito
John Mayer - Where the Light Is - Live In Los Angeles (2008) [BDrip 1080p]

John Mayer - Where the Light Is - Live In Los Angeles (2008)
BDRip 1080p | MKV | 1920x1080 (16:9) at 23.976 fps, AVC (High@L4.1) | 10.78 GB
Audio: 1536 kbps, 48 khz, 24 bits, 6 channels, DTS | Length: 2h 39mn
Genre: Blues rock | Nitroflare/Filefactory/Bigfile


Where The Light Is: John Mayer Live in Los Angeles captures the multi-Grammy® Award-winning, Platinum-selling singer/songwriter in the element where fans love him the most: live on stage. This special concert includes three sets: an acoustic performance, a rare set with John Mayer Trio (John Mayer, Steve Jordan and Pino Palladino), as well as a set featuring Mayer's full band. John Mayer's Where The Light Is includes 22 songs and features a one-of-a-kind song list made up of the three distinct performances - all recorded the night of December 8th, 2007 at the NOKIA Theatre in Los Angeles.

John Mayer - Where the Light Is - Live In Los Angeles (2008) [BDrip 1080p]

John Mayer - Where the Light Is - Live In Los Angeles (2008) [BDrip 1080p]

John Mayer - Where the Light Is - Live In Los Angeles (2008) [BDrip 1080p]

John Mayer - Where the Light Is - Live In Los Angeles (2008) [BDrip 1080p]

John Mayer - Where the Light Is - Live In Los Angeles (2008) [BDrip 1080p]

John Mayer - Where the Light Is - Live In Los Angeles (2008) [BDrip 1080p]



Tracklist

Acoustic Set
"Neon" (Mayer, Clay Cook) - 5:58
"Stop This Train" - 5:00
"In Your Atmosphere" - 5:46
"Daughters" - 5:05
"Free Fallin'" (Tom Petty, Jeff Lynne) - 4:24

John Mayer Trio Set
"Everyday I Have the Blues" (Elmore James) - 4:14
"Wait Until Tomorrow" (Jimi Hendrix) - 4:19
"Who Did You Think I Was" - 4:23
"Come When I Call" - 3:24
"Good Love Is on the Way" (Mayer, Steve Jordan, Pino Palladino) - 4:19
"Out of My Mind" - 10:11
"Vultures" (Mayer, Jordan, Palladino) - 5:20
"Bold as Love" (Hendrix) - 8:38

Band Set
"Waiting on the World to Change" - 3:53
"Slow Dancing in a Burning Room" - 5:19
"Why Georgia" - 4:27
"The Heart of Life" - 3:40
"I Don't Need No Doctor" (Joseph Armstead, Nick Ashford, Valerie Simpson) - 6:03
"Gravity" - 9:41
"I Don't Trust Myself (With Loving You)" - 8:45
"Belief" - 6:04
"I'm Gonna Find Another You" - 5:41


General
Unique ID : 233860585554972944201733057901720402730 (0xAFEFE913766C41689049767C0F5A7B2A)
Complete name : C:\Users\ggu\Desktop\ggu\John Mayer - Where the Light Is [1080p, DTS, BDrip].mkv
Format : Matroska
Format version : Version 1
File size : 10.8 GiB
Duration : 2 h 39 min
Overall bit rate : 9 700 kb/s
Encoded date : UTC 2008-08-26 20:48:57
Writing application : mkvmerge v2.2.0 ('Turn It On Again') built on Mar 4 2008 12:58:26
Writing library : libebml v0.7.7 + libmatroska v0.8.1

Video
ID : 1
Format : AVC
Format/Info : Advanced Video Codec
Format profile : High@L4.1
Format settings, CABAC : Yes
Format settings, ReFrames : 4 frames
Codec ID : V_MPEG4/ISO/AVC
Duration : 2 h 39 min
Bit rate : 7 997 kb/s
Width : 1 920 pixels
Height : 1 080 pixels
Display aspect ratio : 16:9
Frame rate mode : Constant
Frame rate : 23.976 FPS
Original frame rate : 25.000 FPS
Color space : YUV
Chroma subsampling : 4:2:0
Bit depth : 8 bits
Scan type : Progressive
Bits/(Pixel*Frame) : 0.161
Stream size : 8.89 GiB (82%)
Title : x264 crf
Writing library : x264 core 61 r949M 60c4f7e
Encoding settings : cabac=1 / ref=4 / deblock=1:-3:-3 / analyse=0x3:0x113 / me=umh / subme=7 / psy_rd=1.0:0.0 / brdo=1 / mixed_ref=1 / me_range=16 / chroma_me=1 / trellis=0 / 8x8dct=1 / cqm=0 / deadzone=6,4 / chroma_qp_offset=-2 / threads=6 / nr=0 / decimate=0 / mbaff=0 / bframes=3 / b_pyramid=1 / b_adapt=1 / b_bias=0 / direct=1 / wpredb=1 / bime=1 / keyint=250 / keyint_min=25 / scenecut=40(pre) / rc=crf / crf=21.0 / rceq='blurCplx^(1-qComp)' / qcomp=1.00 / qpmin=10 / qpmax=51 / qpstep=4 / vbv_maxrate=38000 / vbv_bufsize=30000 / ip_ratio=1.40 / pb_ratio=1.30 / aq=2:1.00
Default : Yes
Forced : No

Audio
ID : 2
Format : DTS
Format/Info : Digital Theater Systems
Mode : 16
Format settings, Endianness : Big
Codec ID : A_DTS
Duration : 2 h 39 min
Bit rate mode : Constant
Bit rate : 1 510 kb/s
Channel(s) : 6 channels
Channel positions : Front: L C R, Side: L R, LFE
Sampling rate : 48.0 kHz
Frame rate : 93.750 FPS (512 spf)
Bit depth : 24 bits
Compression mode : Lossy
Stream size : 1.68 GiB (16%)
Title : DTS 1536
Language : English
Default : Yes
Forced : No

Menu #1
00:00:00.000 : en:00:00:00.000
00:03:04.768 : en:00:03:04.768
00:09:17.974 : en:00:09:17.974
00:14:26.115 : en:00:14:26.115
00:20:31.188 : en:00:20:31.188
00:25:38.328 : en:00:25:38.328
00:30:17.274 : en:00:30:17.274
00:33:53.114 : en:00:33:53.114
00:37:49.058 : en:00:37:49.058
00:42:02.645 : en:00:42:02.645
00:43:33.820 : en:00:43:33.820
00:48:13.099 : en:00:48:13.099
00:51:38.721 : en:00:51:38.721
00:56:01.108 : en:00:56:01.108
01:06:27.483 : en:01:06:27.483
01:11:53.184 : en:01:11:53.184
01:14:16.744 : en:01:14:16.744
01:23:07.816 : en:01:23:07.816
01:26:26.264 : en:01:26:26.264
01:30:31.009 : en:01:30:31.009
01:36:54.767 : en:01:36:54.767
01:41:24.662 : en:01:41:24.662
01:45:10.930 : en:01:45:10.930
01:52:11.725 : en:01:52:11.725
02:03:49.714 : en:02:03:49.714
02:12:36.866 : en:02:12:36.866
02:18:51.114 : en:02:18:51.114
02:26:19.854 : en:02:26:19.854

Menu #2
00:00:00.000 : en:00:00:00.000
00:03:04.768 : en:00:03:04.768
00:09:17.974 : en:00:09:17.974
00:14:26.115 : en:00:14:26.115
00:20:31.188 : en:00:20:31.188
00:25:38.328 : en:00:25:38.328
00:30:17.274 : en:00:30:17.274
00:33:53.114 : en:00:33:53.114
00:37:49.058 : en:00:37:49.058
00:42:02.645 : en:00:42:02.645
00:43:33.820 : en:00:43:33.820
00:48:13.099 : en:00:48:13.099
00:51:38.721 : en:00:51:38.721
00:56:01.108 : en:00:56:01.108
01:06:27.483 : en:01:06:27.483
01:11:53.184 : en:01:11:53.184
01:14:16.744 : en:01:14:16.744
01:23:07.816 : en:01:23:07.816
01:26:26.264 : en:01:26:26.264
01:30:31.009 : en:01:30:31.009
01:36:54.767 : en:01:36:54.767
01:41:24.662 : en:01:41:24.662
01:45:10.930 : en:01:45:10.930
01:52:11.725 : en:01:52:11.725
02:03:49.714 : en:02:03:49.714
02:12:36.866 : en:02:12:36.866
02:18:51.114 : en:02:18:51.114
02:26:19.854 : en:02:26:19.854



Thanks to the original uploader