Subcategories

John's Children - The Legendary Orgasm Album (1982) {2000, Reissue}

Posted By: popsakov
John's Children - The Legendary Orgasm Album (1982) {2000, Reissue}

John's Children - The Legendary Orgasm Album (1982) {2000, Reissue}
EAC Rip | WV (Img) + Cue + Log ~ 360 Mb | MP3 CBR320 ~ 176 Mb
Full Scans (PNG, 300 dpi) ~ 61 Mb | RAR 5% Recovery
Psychedelic Rock | Ⓟ 1982 / © 2000 Cherry Red Records #CDMRED 177

Orgasm is John's Children's sole studio album, projected for release on 18 March 1967, and eventually released in September 1970. It was recorded (before Marc Bolan joined the band) at Advison Studios in London, England. Originally intended as a regular studio album, it was transformed into a fake "live" album by producer Simon Napier-Bell by dubbing audience screams lifted from The Beatles' movie A Hard Day's Night.

According to the liner notes by Chris Donovan in the 1982 Cherry Red Records reissue of the album, its release in the United States was stopped by the Daughters of the American Revolution, who objected to the title. When the album was finally released by White Whale in the U.S., the title "Orgasm" was covered up on the front cover and on the disc label. However, the title was forgotten to be removed from the LP spine, where it remained.

John's Children were a 1960s pop art/mod rock band from Leatherhead, England that briefly featured future T. Rex frontman Marc Bolan. John's Children were known for their outrageous live performances and were booted off a tour with The Who in Germany in 1967 when they upstaged the headliners. Their 1967 single "Desdemona", a Bolan composition, was banned by the BBC because of the controversial lyric, "Lift up your skirt and fly." Their US record label delayed the release of their album, Orgasm for four years from its recording date due to objections from Daughters of the American Revolution.

John's Children were active for less than two years and were not very successful commercially, having released only six singles and one album, but they had a big influence on punk rock and are seen by some as the precursors of glam rock. In retrospect the band has been praised for the impact they had, and their singles have become amongst the most sought-after British 1960s rock collectables.
~ Wiki

The first readily available edition of Orgasm. The skimpy, vaguely Who-ish songs are nearly buried under the mountainous overdubs of hysterical teenage screams, making this a true artifact – and nothing more – of an era. The reissue includes excellent liner notes and four bonus tracks – the fine psychedelic single "Smashed Blocked" and its decent follow-up, "Just What You Want – Just What You'll Get," the B-side of which ("But You're Mine") is an unabashed ripoff of the Who's "I Can't Explain." Be warned that the version of "Strange Affair" (the B-side of "Smashed Blocked") included here has, for some inexplicable reason, been presented backwards!
~ Richie Unterberger, All Music

***************

John's Children - The Legendary Orgasm Album (1982) {2000, Reissue}

John's Children - The Legendary Orgasm Album (1982) {2000, Reissue}

Track List:

01. Smashed blocked [2:57]
02. Just what you want - just what you'll get [2:57]
03. Killer ben [2:29]
04. Jagged time lapse [3:13]
05. Smashed blocked (live) [3:20]
06. You're a nothing [3:36]
07. Not the sort of my girl [2:05]
08. Cold on me [2:51]
09. Leave me alone [3:12]
10. Let me know [3:27]
11. Just what you want - just what you'll get (live) [3:40]
12. Why do you lie [5:00]
13. Strange affair [1:59]
14. But she's mine [2:01]

Personnel:
Andy Ellison - vocals, maracas
Geoff McClelland - guitar
John Hewlett - bass guitar
Chris Townson - drums

With:
Jeff Beck - guitar on "But She's Mine"

Exact Audio Copy V1.3 from 2. September 2016

EAC extraction logfile from 11. November 2017, 9:59

John's Children / The Legendary Orgasm Album (Cherry Red Enhanced)

Used drive : PLEXTOR DVDR PX-L890SA Adapter: 1 ID: 0

Read mode : Secure
Utilize accurate stream : Yes
Defeat audio cache : Yes
Make use of C2 pointers : No

Read offset correction : 6
Overread into Lead-In and Lead-Out : No
Fill up missing offset samples with silence : Yes
Delete leading and trailing silent blocks : No
Null samples used in CRC calculations : Yes
Used interface : Native Win32 interface for Win NT & 2000

Used output format : User Defined Encoder
Selected bitrate : 1024 kBit/s
Quality : High
Add ID3 tag : No
Command line compressor : C:\Program Files (x86)\Exact Audio Copy\wavpack.exe
Additional command line options : -lm %source%


TOC of the extracted CD

Track | Start | Length | Start sector | End sector
––––––––––––––––––––––––––––-
1 | 0:00.00 | 2:56.67 | 0 | 13266
2 | 2:56.67 | 2:57.35 | 13267 | 26576
3 | 5:54.27 | 2:28.55 | 26577 | 37731
4 | 8:23.07 | 3:13.15 | 37732 | 52221
5 | 11:36.22 | 3:19.68 | 52222 | 67214
6 | 14:56.15 | 3:35.45 | 67215 | 83384
7 | 18:31.60 | 2:05.00 | 83385 | 92759
8 | 20:36.60 | 2:50.55 | 92760 | 105564
9 | 23:27.40 | 3:12.37 | 105565 | 120001
10 | 26:40.02 | 3:27.25 | 120002 | 135551
11 | 30:07.27 | 3:40.15 | 135552 | 152066
12 | 33:47.42 | 4:59.63 | 152067 | 174554
13 | 38:47.30 | 1:58.72 | 174555 | 183476
14 | 40:46.27 | 2:00.58 | 183477 | 192534
15 | 45:19.10 | 6:04.65 | 203935 | 231299


Range status and errors

Selected range

Filename D:\wwphil\John's Children - The Legendary Orgasm Album (Cherry Red Enhanced)\John's Children - The Legendary Orgasm Album (Cherry Red Enhanced).wav

Peak level 100.0 %
Extraction speed 8.2 X
Range quality 100.0 %
Test CRC 9077E549
Copy CRC 9077E549
Copy OK

No errors occurred


AccurateRip summary

Track 1 accurately ripped (confidence 2) [893874AD] (AR v2)
Track 2 accurately ripped (confidence 2) [60D751C7] (AR v2)
Track 3 accurately ripped (confidence 2) [F64A3431] (AR v2)
Track 4 accurately ripped (confidence 2) [8287AC51] (AR v2)
Track 5 accurately ripped (confidence 2) [4AC3FEE6] (AR v2)
Track 6 accurately ripped (confidence 2) [4840629E] (AR v2)
Track 7 accurately ripped (confidence 2) [4E6F3103] (AR v2)
Track 8 accurately ripped (confidence 2) [DDDA73D7] (AR v2)
Track 9 accurately ripped (confidence 2) [7E7B585A] (AR v2)
Track 10 accurately ripped (confidence 2) [AF560065] (AR v2)
Track 11 accurately ripped (confidence 2) [D1B3EAB9] (AR v2)
Track 12 accurately ripped (confidence 2) [C1C428DD] (AR v2)
Track 13 accurately ripped (confidence 2) [0192B01D] (AR v2)
Track 14 accurately ripped (confidence 2) [B19B1A1B] (AR v2)

All tracks accurately ripped

End of status report

==== Log checksum DBFDEFCA1E98EEF029DB694753A12F2B8C2778A1EF09A40FE41ECDE666BB539A ====

foobar2000 1.3.16 / Dynamic Range Meter 1.1.1
log date: 2017-11-12 01:40:26

––––––––––––––––––––––––––––––––––––––––
Analyzed: John's Children / The Legendary Orgasm Album (Cherry Red Enhanced)
––––––––––––––––––––––––––––––––––––––––

DR Peak RMS Duration Track
––––––––––––––––––––––––––––––––––––––––
DR10 -1.95 dB -14.51 dB 2:57 01-Smashed blocked
DR11 -1.37 dB -15.06 dB 2:57 02-Just what you want - just what you'll get
DR11 -2.79 dB -15.57 dB 2:29 03-Killer ben
DR11 -2.54 dB -14.84 dB 3:13 04-Jagged time lapse
DR11 -2.62 dB -15.68 dB 3:20 05-Smashed blocked (live)
DR10 -1.03 dB -13.96 dB 3:36 06-You're a nothing
DR11 -3.04 dB -16.35 dB 2:05 07-Not the sort of my girl
DR11 0.00 dB -15.55 dB 2:51 08-Cold on me
DR11 -1.73 dB -16.20 dB 3:12 09-Leave me alone
DR12 -2.07 dB -16.89 dB 3:27 10-Let me know
DR11 -3.02 dB -16.18 dB 3:40 11-Just what you want - just what you'll get (live)
DR11 -1.04 dB -15.27 dB 5:00 12-Why do you lie
DR11 -0.25 dB -14.61 dB 1:59 13-Strange affair
DR11 -1.79 dB -14.58 dB 2:01 14-But she's mine
––––––––––––––––––––––––––––––––––––––––

Number of tracks: 14
Official DR value: DR11

Samplerate: 44100 Hz
Channels: 2
Bits per sample: 16
Bitrate: 931 kbps
Codec: WavPack
================================================================================

[CUETools log; Date: 12.11.2017 1:40:06; Version: 2.1.5]
CD-Extra data track length 06:04:65.
[CTDB TOCID: eYe4aZPRVqbkiiouVSTWBZO2fs4-] found.
Track | CTDB Status
1 | (7/7) Accurately ripped
2 | (7/7) Accurately ripped
3 | (7/7) Accurately ripped
4 | (7/7) Accurately ripped
5 | (7/7) Accurately ripped
6 | (7/7) Accurately ripped
7 | (7/7) Accurately ripped
8 | (7/7) Accurately ripped
9 | (7/7) Accurately ripped
10 | (7/7) Accurately ripped
11 | (7/7) Accurately ripped
12 | (7/7) Accurately ripped
13 | (7/7) Accurately ripped
14 | (7/7) Accurately ripped
[AccurateRip ID: 0016845c-00f47507-d20c0c0f] found.
Track [ CRC | V2 ] Status
01 [c7c5d63f|893874ad] (0+2/2) Accurately ripped
02 [75b59b44|60d751c7] (0+2/2) Accurately ripped
03 [53cf6bfa|f64a3431] (0+2/2) Accurately ripped
04 [9d9c892a|8287ac51] (0+2/2) Accurately ripped
05 [87a70d18|4ac3fee6] (0+2/2) Accurately ripped
06 [db3c0610|4840629e] (0+2/2) Accurately ripped
07 [070f2bd7|4e6f3103] (0+2/2) Accurately ripped
08 [94d0c19c|ddda73d7] (0+2/2) Accurately ripped
09 [1799a2ac|7e7b585a] (0+2/2) Accurately ripped
10 [43df75b3|af560065] (0+2/2) Accurately ripped
11 [96354222|d1b3eab9] (0+2/2) Accurately ripped
12 [41969695|c1c428dd] (0+2/2) Accurately ripped
13 [5c64340f|0192b01d] (0+2/2) Accurately ripped
14 [04b9c5ab|b19b1a1b] (0+2/2) Accurately ripped

Track Peak [ CRC32 ] [W/O NULL] [ LOG ]
– 100,0 [9077E549] [BE94CE2E] CRC32
01 79,8 [0CCD2439] [2DF59BA0]
02 85,3 [3E282F47] [8C61A324]
03 72,5 [CDCEEEF0] [870119A3]
04 74,6 [6DAFB10E] [41967559]
05 73,9 [3F4DD866] [E8567C2D]
06 88,7 [DE61CE37] [D7BEB07B]
07 70,4 [4B46EA99] [CC3BDD70]
08 100,0 [AF1B4AFD] [A9C35E19]
09 81,9 [DC56612D] [90CE152F]
10 78,7 [EBD234E4] [5C75B585]
11 70,5 [4344E3E0] [47A9340E]
12 88,6 [C729A655] [1B34DE77]
13 97,1 [F8B95449] [5F01F2B7]
14 81,4 [BEE659A1] [7B6F92EE]

John's Children - The Legendary Orgasm Album (1982) {2000, Reissue}

All thanks go to wwphil

>>> My Blog <<<

Download from icerbox.com: