John Carpenter & Alan Howarth - Escape From New York: Original Film Soundtrack (1981) New Expanded Edition 2005

Posted By: Designol
John Carpenter & Alan Howarth - Escape From New York: Original Film Soundtrack (1981) New Expanded Edition 2005

John Carpenter & Alan Howarth - Escape From New York: Original Film Soundtrack (1981) New Expanded Edition 2005
EAC | FLAC | Image (Cue&Log) ~ 335 Mb (incl 5%) | Mp3 (CBR320) ~ 171 Mb (incl 5%) | Scans included
Genre: Soundtrack, Score | Label: Silva Screen | # SILCD3016 | Time: 00:57:31

John Carpenter is a rarity among film directors in that he is also a composer who writes the musical scores for his movies as well. Carpenter's 1981 film Escape From New York was a kind of genre hybrid, a science-fiction crime thriller with suggestions of a spaghetti western thrown in. Set in a near future when Manhattan has been converted into a no-man's-land prison, the movie needed an appropriately futuristic soundtrack, and Carpenter came up with a score for synthesizer that he played with his sound designer Alan Howarth. Despite the instrumentation, however, the composer retained a style familiar from such earlier works as Halloween. He favored simple, repetitive keyboard figures, generally two per sequence, set in a fast-slow counterpoint. The Escape From New York score had a few changes of pace, notably a borrowing from Debussy and an ersatz Broadway show tune, "Everyone's Coming to New York" ("Shoot a cop with a gun/The Big Apple is plenty of fun"), but most of the music sounded like earlier Carpenter scores, similarly creating a tense, ominous tone much of the time. The high-tech sound was sometimes at odds with the bombed-out sets in the film, but it helped maintained a tense mood in a movie that sometimes threatened to become comical because it was so stylized. Two decades later, when the soundtrack was reissued on an expanded CD, the synth sound was no longer futuristic but very much of its early-'80s time. Howarth, who had constructed the original 37-minute LP, re-edited and retitled the previously released material and came up with an additional 20 minutes' worth of cues and excerpts from the film's arch dialogue. There was music from two cut scenes and an unused closing-credit theme, all of it in a consistent style with the previously heard material.

Review by William Ruhlmann, Allmusic.com

John Carpenter Website
John Carpenter at Wiki

Film at IMDB
Film at Wiki


Tracklist:

01. Main Title (03:53)
02. The Bank Robbery (03:30)
03. 'Prison Introduction' (00:20)
04. Over the Wall - Air Force One (02:23)
05. He's Still Alive - Romero (02:12)
06. 'Snake' Plissken (01:41)
07. Orientation (01:47)
08. 'Tell Him' (01:46)
09. Engulfed Cathedral (Debussy) (03:33)
10. Across the Road (01:17)
11. Descent into New York (03:37)
12. Back to the Pod [Version #1] (01:34)
13. Everyone's Coming to New York (02:24)
14. 'Don't Go Down There!' (00:19)
15. Back to the Pod [Version #2] - The Crazies Come Out (02:09)
16. 'I Heard You Were Dead!' (00:08)
17. Arrival at the Library (01:06)
18. 'You Are The Duke of New York' (00:16)
19. The Duke Arrives - Barricade (03:35)
20. President at the Train (02:28)
21. 'Who Are You?' (00:27)
22. Police Action (02:27)
23. Romero and the President (01:43)
24. The President Is Gone (01:53)
25. 69th Street Bridge (02:44)
26. Over the Wall (03:42)
27. 'The Name Is Plissken' (00:25)
28. Snake Shake - End Credits (03:58)


EAC extraction logfile from 24. January 2007, 13:13 for CD
John Carpenter / Escape From New York (Expanded Edition)

Used drive : HL-DT-STCD-RW GCE-8526B Adapter: 1 ID: 1
Read mode : Secure with NO C2, accurate stream, disable cache
Read offset correction : 6
Overread into Lead-In and Lead-Out : No

Used output format : Internal WAV Routines
44.100 Hz; 16 Bit; Stereo

Other options :
Fill up missing offset samples with silence : Yes
Delete leading and trailing silent blocks : No
Installed external ASPI interface


Range status and errors
Selected range
Filename C:\EAC\John Carpenter - Escape From New York (Expanded Edition)\John Carpenter - Escape From New York (Expanded Edition).wav

Peak level 99.6 %
Range quality 100.0 %
CRC 8BAA8A50
Copy OK

No errors occured

End of status report

[CUETools log; Date: 29.10.2014 19:21:47; Version: 2.1.4]
[CTDB TOCID: xQBX4a46n1.bIB8AjDzJk2xDvsg-] found.
Track | CTDB Status
1 | (18/18) Accurately ripped
2 | (18/18) Accurately ripped
3 | (18/18) Accurately ripped
4 | (18/18) Accurately ripped
5 | (18/18) Accurately ripped
6 | (18/18) Accurately ripped
7 | (18/18) Accurately ripped
8 | (18/18) Accurately ripped
9 | (18/18) Accurately ripped
10 | (18/18) Accurately ripped
11 | (18/18) Accurately ripped
12 | (18/18) Accurately ripped
13 | (18/18) Accurately ripped
14 | (18/18) Accurately ripped
15 | (18/18) Accurately ripped
16 | (18/18) Accurately ripped
17 | (18/18) Accurately ripped
18 | (18/18) Accurately ripped
19 | (18/18) Accurately ripped
20 | (18/18) Accurately ripped
21 | (18/18) Accurately ripped
22 | (18/18) Accurately ripped
23 | (18/18) Accurately ripped
24 | (18/18) Accurately ripped
25 | (18/18) Accurately ripped
26 | (18/18) Accurately ripped
27 | (18/18) Accurately ripped
28 | (18/18) Accurately ripped
[AccurateRip ID: 003a1fdf-046e34fa-990d7b1c] found.
Track [ CRC | V2 ] Status
01 [670c9599|a75210c8] (00+03/27) Accurately ripped
02 [52607dd4|48ef2274] (00+03/28) Accurately ripped
03 [d3faaa0c|7ec215f6] (00+03/28) Accurately ripped
04 [5b1c2dd8|5a055985] (00+03/28) Accurately ripped
05 [71ad933a|29ce2bea] (00+03/27) Accurately ripped
06 [045d7e85|a44c2cca] (00+03/27) Accurately ripped
07 [aa0fb7ea|c408adec] (00+03/27) Accurately ripped
08 [bf26795c|580032e8] (00+03/27) Accurately ripped
09 [eaec7ee6|9d61ddf2] (00+03/27) Accurately ripped
10 [057a2caf|e74c436a] (00+03/27) Accurately ripped
11 [044bccc6|b08e1ad2] (00+03/27) Accurately ripped
12 [30ed2836|16c68a3c] (00+03/27) Accurately ripped
13 [d050bceb|93a3b3bb] (00+03/27) Accurately ripped
14 [56d7fd03|493a4257] (00+03/27) Accurately ripped
15 [7f9ca8a1|91aca200] (00+03/27) Accurately ripped
16 [bfd7613d|49179702] (00+03/27) Accurately ripped
17 [fd4bce76|a13a9fef] (00+03/27) Accurately ripped
18 [1bea1845|92a1971a] (00+03/27) Accurately ripped
19 [c7a9b43e|03a13ef2] (00+03/27) Accurately ripped
20 [24e76f12|ca0937ec] (00+03/27) Accurately ripped
21 [cbeaa9b0|8afdcc7b] (00+03/27) Accurately ripped
22 [2f89ecbf|3ab41ec7] (00+03/27) Accurately ripped
23 [4c2ec142|dc57d6bf] (00+03/27) Accurately ripped
24 [48e70719|c4a55d22] (00+03/27) Accurately ripped
25 [2538e749|01e27b23] (00+03/27) Accurately ripped
26 [051e835e|8a8a8f9a] (00+03/27) Accurately ripped
27 [20134f11|06bb012f] (00+03/27) Accurately ripped
28 [69187733|b0828b4c] (00+02/26) Accurately ripped
Offsetted by -1935:
01 [8ae8ec69] (05/27) Accurately ripped
02 [28ccf38d] (05/28) Accurately ripped
03 [8ab1ddaa] (05/28) Accurately ripped
04 [ff7b370a] (05/28) Accurately ripped
05 [88a46a3e] (05/27) Accurately ripped
06 [2985070e] (05/27) Accurately ripped
07 [2873cb3c] (05/27) Accurately ripped
08 [1c79fb53] (05/27) Accurately ripped
09 [2d3d4a7f] (05/27) Accurately ripped
10 [6b26d2cb] (05/27) Accurately ripped
11 [80399518] (05/27) Accurately ripped
12 [f5edf745] (05/27) Accurately ripped
13 [1e1c7dbc] (05/27) Accurately ripped
14 [5b23ac78] (05/27) Accurately ripped
15 [9e2313e9] (05/27) Accurately ripped
16 [a4be813f] (05/27) Accurately ripped
17 [f39f8a5c] (05/27) Accurately ripped
18 [4cc3e387] (05/27) Accurately ripped
19 [d4caa559] (05/27) Accurately ripped
20 [b1a07ccf] (05/27) Accurately ripped
21 [e0644dea] (05/27) Accurately ripped
22 [4ed37fe9] (05/27) Accurately ripped
23 [29752132] (05/27) Accurately ripped
24 [c13b3e2b] (05/27) Accurately ripped
25 [4799c8c6] (05/27) Accurately ripped
26 [e15770fb] (05/27) Accurately ripped
27 [ce8dae52] (05/27) Accurately ripped
28 [86b13996] (05/26) Accurately ripped
Offsetted by 636:
01 [01021098] (02/27) Accurately ripped
02 [01793dfc] (02/28) Accurately ripped
03 [ce48f13a] (02/28) Accurately ripped
04 [9625d9a5] (02/28) Accurately ripped
05 [bf126ff3] (02/27) Accurately ripped
06 [b8405d22] (02/27) Accurately ripped
07 [60d385cf] (02/27) Accurately ripped
08 [a8194d49] (02/27) Accurately ripped
09 [9cc2ac68] (02/27) Accurately ripped
10 [ab5797b8] (02/27) Accurately ripped
11 [f93b36fa] (02/27) Accurately ripped
12 [1e66dbb9] (02/27) Accurately ripped
13 [8973e6c2] (02/27) Accurately ripped
14 [59bde805] (02/27) Accurately ripped
15 [7d011bb1] (02/27) Accurately ripped
16 [ab97a2db] (02/27) Accurately ripped
17 [b6f67aa7] (02/27) Accurately ripped
18 [451c8894] (02/27) Accurately ripped
19 [5153bc5b] (02/27) Accurately ripped
20 [6a938155] (02/27) Accurately ripped
21 [a065d702] (02/27) Accurately ripped
22 [b5f8fdcd] (02/27) Accurately ripped
23 [a1844f04] (02/27) Accurately ripped
24 [7d0fd646] (02/27) Accurately ripped
25 [9de7d613] (02/27) Accurately ripped
26 [f27e21a4] (02/27) Accurately ripped
27 [6a205867] (02/27) Accurately ripped
28 [acd4ca09] (02/26) Accurately ripped
Offsetted by 654:
01 [5688bab3] (02/27) Accurately ripped
02 [67b58a7d] (02/28) Accurately ripped
03 [382e1aa0] (02/28) Accurately ripped
04 [60ee4555] (02/28) Accurately ripped
05 [2add2395] (02/27) Accurately ripped
06 [b8f270b0] (02/27) Accurately ripped
07 [27d7f088] (02/27) Accurately ripped
08 [808ba014] (02/27) Accurately ripped
09 [bf689ef3] (02/27) Accurately ripped
10 [5ac605b5] (02/27) Accurately ripped
11 [74c1da44] (02/27) Accurately ripped
12 [8321680a] (02/27) Accurately ripped
13 [5e6b804f] (02/27) Accurately ripped
14 [56380049] (02/27) Accurately ripped
15 [0db8e80d] (02/27) Accurately ripped
16 [f970d002] (02/27) Accurately ripped
17 [1fec3640] (02/27) Accurately ripped
18 [8d635899] (02/27) Accurately ripped
19 [90176043] (02/27) Accurately ripped
20 [68edc210] (02/27) Accurately ripped
21 [80b157a6] (02/27) Accurately ripped
22 [660e8c74] (02/27) Accurately ripped
23 [5ae9b0b7] (02/27) Accurately ripped
24 [fd26435b] (02/27) Accurately ripped
25 [d854c23f] (02/27) Accurately ripped
26 [eadeaada] (02/27) Accurately ripped
27 [c209a57b] (02/27) Accurately ripped
28 [e6eda880] (02/26) Accurately ripped
Offsetted by 666:
01 [436d782b] (04/27) Accurately ripped
02 [350a60ef] (05/28) Accurately ripped
03 [bde9971f] (05/28) Accurately ripped
04 [96ab949f] (05/28) Accurately ripped
05 [dd076b02] (05/27) Accurately ripped
06 [e3bdd669] (05/27) Accurately ripped
07 [11d29990] (05/27) Accurately ripped
08 [79f325cf] (05/27) Accurately ripped
09 [5d52aeab] (05/27) Accurately ripped
10 [70113982] (05/27) Accurately ripped
11 [96b50ce8] (05/27) Accurately ripped
12 [7b9959bf] (05/27) Accurately ripped
13 [98293e27] (05/27) Accurately ripped
14 [8e194405] (05/27) Accurately ripped
15 [03c6c1f3] (05/27) Accurately ripped
16 [08b59a4c] (05/27) Accurately ripped
17 [f3ac1499] (05/27) Accurately ripped
18 [68a5414f] (05/27) Accurately ripped
19 [a3b102fb] (05/27) Accurately ripped
20 [32185b38] (05/27) Accurately ripped
21 [3659b4bd] (05/27) Accurately ripped
22 [7cdb1860] (05/27) Accurately ripped
23 [aa908939] (05/27) Accurately ripped
24 [33964df4] (05/27) Accurately ripped
25 [5c4b6261] (05/27) Accurately ripped
26 [d69888bb] (05/27) Accurately ripped
27 [1e9769fd] (05/27) Accurately ripped
28 [ef5b9f71] (05/26) Accurately ripped

Track Peak [ CRC32 ] [W/O NULL]
– 99,6 [8BAA8A50] [C3B650DF]
01 96,6 [9586FBA8] [1BBED710]
02 96,6 [73742C0C] [F020A9B1]
03 91,6 [E32143D1] [FE82055E]
04 96,6 [23BDD5E3] [509C10CB]
05 94,4 [80BE74A7] [CDDF6A85]
06 69,9 [C83DD854] [BC6DEC1E]
07 48,9 [15EE8280] [3D86691F]
08 78,2 [88AD4758] [9C5D6E7F]
09 89,3 [E94139AB] [B18C90CC]
10 84,2 [05DB4139] [2250BA42]
11 72,7 [3CD108CD] [D855AA5C]
12 70,1 [212E72AC] [268BAC88]
13 97,0 [E8B6E395] [1AF70CFA]
14 76,6 [4CBA3752] [C69B228D]
15 85,3 [DC256183] [84B625E9]
16 46,7 [B5F36957] [A55EF61A]
17 96,6 [3609CBF1] [5E9A57BD]
18 88,3 [9CDF9636] [633B8065]
19 96,7 [061ED5E7] [2BCE9AAF]
20 96,6 [6B47F621] [F575FF3E]
21 93,3 [F503AAC0] [D64740E4]
22 90,6 [6120987A] [5877F1A9]
23 84,0 [BEA2A76C] [4BB456A4]
24 89,3 [936B6088] [17B781FF]
25 99,6 [F2298783] [DF246D7B]
26 96,6 [8C134EAE] [BDE8405E]
27 96,0 [BA5A683D] [65CCB2D9]
28 96,6 [8852C960] [886DB8BA]

foobar2000 1.2 / Dynamic Range Meter 1.1.1
log date: 2014-10-29 17:33:33

––––––––––––––––––––––––––––––––––––––––
Analyzed: John Carpenter / Escape From New York (Expanded Edition)
––––––––––––––––––––––––––––––––––––––––

DR Peak RMS Duration Track
––––––––––––––––––––––––––––––––––––––––
DR10 -0.30 dB -12.76 dB 3:54 01-Main Title
DR11 -0.30 dB -14.17 dB 3:30 02-The Bank Robbery
DR15 -0.76 dB -20.17 dB 0:21 03-'Prison Introduction'
DR9 -0.30 dB -13.39 dB 2:23 04-Over the Wall - Air Force One
DR11 -0.49 dB -14.13 dB 2:13 05-He's Still Alive - Romero
DR17 -3.11 dB -23.89 dB 1:41 06-'Snake' Plissken
DR10 -6.20 dB -18.90 dB 1:48 07-Orientation
DR16 -2.13 dB -21.22 dB 1:46 08-'Tell Him'
DR10 -0.98 dB -14.38 dB 3:33 09-Engulfed Cathedral (Debussy)
DR11 -1.49 dB -16.63 dB 1:17 10-Across the Road
DR10 -2.77 dB -17.36 dB 3:38 11-Descent into New York
DR8 -3.08 dB -15.12 dB 1:35 12-Back to the Pod [Version #1]
DR10 -0.26 dB -12.67 dB 2:25 13-Everyone's Coming to New York
DR5 -2.31 dB -14.49 dB 0:20 14-'Don't Go Down There!'
DR9 -1.38 dB -14.69 dB 2:09 15-Back to the Pod [Version #2] - The Crazies Come Out
DR16 -6.61 dB -24.43 dB 0:09 16-'I Heard You Were Dead!'
DR9 -0.30 dB -14.49 dB 1:06 17-Arrival at the Library
DR13 -1.08 dB -17.71 dB 0:17 18-'You Are The Duke of New York'
DR9 -0.29 dB -13.25 dB 3:35 19-The Duke Arrives - Barricade
DR12 -0.30 dB -16.49 dB 2:29 20-President at the Train
DR14 -0.60 dB -17.96 dB 0:28 21-'Who Are You?'
DR9 -0.85 dB -12.51 dB 2:27 22-Police Action
DR10 -1.51 dB -14.27 dB 1:44 23-Romero and the President
DR13 -0.98 dB -17.57 dB 1:54 24-The President Is Gone
DR10 -0.03 dB -13.71 dB 2:44 25-69th Street Bridge
DR11 -0.30 dB -13.98 dB 3:42 26-Over the Wall
DR17 -0.35 dB -19.90 dB 0:25 27-'The Name Is Plissken'
DR11 -0.30 dB -12.37 dB 3:59 28-Snake Shake - End Credits
––––––––––––––––––––––––––––––––––––––––

Number of tracks: 28
Official DR value: DR11

Samplerate: 44100 Hz
Channels: 2
Bits per sample: 16
Bitrate: 701 kbps
Codec: FLAC
================================================================================

John Carpenter & Alan Howarth - Escape From New York: Original Film Soundtrack (1981) New Expanded Edition 2005

John Carpenter & Alan Howarth - Escape From New York: Original Film Soundtrack (1981) New Expanded Edition 2005