Subcategories

John Hammond - So Many Roads (1965) Reissue 2005 [Re-Up]

Posted By: Designol
John Hammond - So Many Roads (1965) Reissue 2005 [Re-Up]

John Hammond - So Many Roads (1965) Reissue 2005
EAC | FLAC | Image (Cue&Log) ~ 268 Mb | Scans included | Time: 00:38:33
Label: Vanguard, Ace Records Ltd. | # VMD 79178
Blues, Blues-Rock, Country-Blues

So Many Roads is Hammond's most notable mid-'60s Vanguard album, due not so much to Hammond's own singing and playing (though he's up to the task) as the yet-to-be-famous backing musicians. Three future members of the Band – Robbie Robertson, Garth Hudson, and Levon Helm – are among the supporting cast, along with Charlie Musselwhite on harmonica, and Mike Bloomfield also contributes. It's one of the first fully realized blues-rock albums, although it's not in the same league as the best efforts of the era by the likes of the Paul Butterfield Blues Band or John Mayall's Bluesbreakers. In part that's because the repertoire is so heavy on familiar Chicago blues classics by the likes of Willie Dixon, Bo Diddley, and Muddy Waters; in part that's because the interpretations are so reverent and close to the originals in arrangement; and in part it's also because Hammond's blues vocals were only okay. Revisionist critics thus tend to downgrade the record a notch. But in the context of its time – when songs like "Down in the Bottom," "Long Distance Call," "Big Boss Man," and "You Can't Judge a Book By the Cover" were not as well known as they would become – it was a punchy, well-done set of electric blues with a rock touch.

Review by Richie Unterberger, Allmusic.com

John Hammond at Allmusic
John Hammond at Wiki

Tracklist:

01. Down In The Bottom (03:05)
02. Long Distance Call (03:22)
03. Who Do You Love (03:03)
04. I Want You To Love Me (04:09)
05. Judgement Day (03:25)
06. So Many Roads, So Many Trains (02:43)
07. Rambling Blues (03:19)
08. O Yea! (03:36)
09. You Can't Judge A Book By The Cover (03:32)
10. Gambling Blues (03:14)
11. Baby, Please Don't Go (02:23)
12. Big Boss Man (02:41)


Exact Audio Copy V1.0 beta 4 from 7. December 2014

Отчёт EAC об извлечении, выполненном 6. января 2015, 11:03

John Hammond / So Many Roads

Дисковод: SONY CD-RW CRX230ED Adapter: 1 ID: 0

Режим чтения : Достоверность
Использование точного потока : Да
Отключение кэша аудио : Да
Использование указателей C2 : Нет

Коррекция смещения при чтении : 6
Способность читать области Lead-in и Lead-out : Нет
Заполнение пропущенных сэмплов тишиной : Да
Удаление блоков с тишиной в начале и конце : Нет
При вычислениях CRC использовались нулевые сэмплы : Да
Интерфейс : Встроенный Win32-интерфейс для Win NT/2000

Выходной формат : Внутренние WAV-операции
Формат сэмплов : 44.100 Гц; 16 бит; стерео


TOC извлечённого CD

Трек | Старт | Длительность | Начальный сектор | Конечный сектор
––––––––––––––––––––––––––––––––––-
1 | 0:00.00 | 3:05.00 | 0 | 13874
2 | 3:05.00 | 3:22.00 | 13875 | 29024
3 | 6:27.00 | 3:03.00 | 29025 | 42749
4 | 9:30.00 | 4:09.00 | 42750 | 61424
5 | 13:39.00 | 3:25.70 | 61425 | 76869
6 | 17:04.70 | 2:43.05 | 76870 | 89099
7 | 19:48.00 | 3:19.00 | 89100 | 104024
8 | 23:07.00 | 3:36.00 | 104025 | 120224
9 | 26:43.00 | 3:32.00 | 120225 | 136124
10 | 30:15.00 | 3:14.00 | 136125 | 150674
11 | 33:29.00 | 2:23.00 | 150675 | 161399
12 | 35:52.00 | 2:41.25 | 161400 | 173499


Характеристики диапазона извлечения и сообщения об ошибках

Выбранный диапазон

Имя файла F:\MusicCD\Torrent\John Hammond - So Many Roads\John Hammond - So Many Roads.wav

Пиковый уровень 89.7 %
Скорость извлечения 6.8 X
Качество диапазона 100.0 %
CRC теста 459243D4
CRC копии 459243D4
Копирование… OK

Ошибок не произошло


AccurateRip: сводка

Трек 1 точность не определена (достоверность 6) [63A20F15], AccurateRip вернул [7A4F56B1] (AR v2)
Трек 2 точность не определена (достоверность 6) [A68D09CA], AccurateRip вернул [663DF727] (AR v2)
Трек 3 точность не определена (достоверность 6) [587B8914], AccurateRip вернул [BDF1D195] (AR v2)
Трек 4 точность не определена (достоверность 6) [7C2F1055], AccurateRip вернул [E49BF2CD] (AR v2)
Трек 5 точность не определена (достоверность 6) [06696AE7], AccurateRip вернул [DDA0E7B9] (AR v2)
Трек 6 точность не определена (достоверность 6) [D6B93AA2], AccurateRip вернул [A617F3C7] (AR v2)
Трек 7 точность не определена (достоверность 6) [6F52C858], AccurateRip вернул [6B59F949] (AR v2)
Трек 8 точность не определена (достоверность 6) [D04B43D5], AccurateRip вернул [D6D88ECD] (AR v2)
Трек 9 точность не определена (достоверность 6) [4E977DBA], AccurateRip вернул [97EC4B01] (AR v2)
Трек 10 точность не определена (достоверность 6) [5D10FE69], AccurateRip вернул [DA5F4E14] (AR v2)
Трек 11 точность не определена (достоверность 6) [21075360], AccurateRip вернул [6213DBF4] (AR v2)
Трек 12 точность не определена (достоверность 6) [553CE983], AccurateRip вернул [3AE24596] (AR v2)

Ни один трек не прошёл проверки на точность
В вашей базе может быть иной вариант штамповки диска

Конец отчёта

–– CUETools DB Plugin V2.1.4

[CTDB TOCID: t60aCOCofuUJsZ2DQ6yJU4ApLqI-] found
Submit result: t60aCOCofuUJsZ2DQ6yJU4ApLqI- has been confirmed
Track | CTDB Status
1 | (6/6) Accurately ripped
2 | (6/6) Accurately ripped
3 | (6/6) Accurately ripped
4 | (6/6) Accurately ripped
5 | (5/6) Accurately ripped
6 | (6/6) Accurately ripped
7 | (6/6) Accurately ripped
8 | (6/6) Accurately ripped
9 | (6/6) Accurately ripped
10 | (6/6) Accurately ripped
11 | (6/6) Accurately ripped
12 | (6/6) Accurately ripped


==== Контрольная сумма отчёта E131003D765014632F89BBE1C822D173112EA613D1EC38043580875AC73E8B37 ====

foobar2000 1.2 / Dynamic Range Meter 1.1.1
log date: 2015-01-07 17:17:58

––––––––––––––––––––––––––––––––––––––––
Analyzed: John Hammond / So Many Roads
––––––––––––––––––––––––––––––––––––––––

DR Peak RMS Duration Track
––––––––––––––––––––––––––––––––––––––––
DR12 -3.31 dB -17.82 dB 3:05 01-Down In The Bottom
DR12 -3.83 dB -19.88 dB 3:22 02-Long Distance Call
DR12 -3.54 dB -17.74 dB 3:03 03-Who Do You Love
DR12 -4.06 dB -19.47 dB 4:09 04-I Want You To Love Me
DR11 -3.41 dB -17.13 dB 3:26 05-Judgement Day
DR12 -3.60 dB -18.91 dB 2:43 06-So Many Roads, So Many Trains
DR14 -0.94 dB -18.67 dB 3:19 07-Rambling Blues
DR15 -1.68 dB -19.13 dB 3:36 08-O Yea!
DR14 -2.39 dB -19.12 dB 3:32 09-You Can't Judge A Book By The Cover
DR13 -2.47 dB -17.28 dB 3:14 10-Gambling Blues
DR13 -4.18 dB -19.48 dB 2:23 11-Baby, Please Don't Go
DR13 -3.84 dB -18.99 dB 2:41 12-Big Boss Man
––––––––––––––––––––––––––––––––––––––––

Number of tracks: 12
Official DR value: DR13

Samplerate: 44100 Hz
Channels: 2
Bits per sample: 16
Bitrate: 764 kbps
Codec: FLAC
================================================================================

John Hammond - So Many Roads (1965) Reissue 2005 [Re-Up]

John Hammond - So Many Roads (1965) Reissue 2005 [Re-Up]

All thanks to original releaser - squirr

More interesting music in My Blog