John Cage - #4 - Joëlle Léandre - Kumi Wakao (2000)

Posted By: basa005
John Cage - #4 - Joëlle Léandre - Kumi Wakao (2000)

John Cage - #4 - Joëlle Léandre - Kumi Wakao (2000)
EAC RIP | APE + CUE + LOG | COVER+BOOK | RAR FILES (3% recovery) | 179 Mb
Classical | Mesostics MESCD-0013


1263001


Joëlle Léandre, doublebass, voice (except tracks 3 and 4);
Kumi Wakao, piano (except tracks 2 and 4);
H. Okabe, glass bottles tuned with water (track 4 only);
R. Numata, glass bottles tuned with water (track 4 only);
M. Uenari, glass bottles tuned with water (track 4 only);
D. Terauchi, glass bottles tuned with water (track 4 only);
T. Nishimura, glass bottles tuned with water (track 4 only).

1.Concert for piano and orchestra [played by piano and bass, and including Solo for piano, and Solo for bass] (23.56)
2.Fontana mix + Aria (14.10)
3.One (09.28)
4.Five (04.51)

Recorded on 10 November 2000 in Hiroshima, Japan


Exact Audio Copy V0.99 prebeta 4 from 23. January 2008

Estrazione File Di Log EAC Del 17. Marzo 2010, 14:48

Artista Sconosciuto / Titolo Sconosciuto

Unità Predefinita: ATAPI DVD A DH16A1L Adapter: 1 ID: 0

Modalità Di Lettura: : Sicura
Utilizza Lettura Accurata : Sì
Disattiva Cache Audio : No
Rileva Errori Lettura C2 : Sì

Correzione Offset Di Lettura: : 6
Sovrascrivi Anche Nel Lead-In E Lead-Out : No
Riempi Sample Offset Mancanti Con Silenzio : Sì
Rimuovi Blocchi Di Silenzio Ad Inizio E Fine Traccia : No
Usa I Sample Nulli Nel Calcolo CRC : Sì
Interfaccia Usata : Interfaccia Nativa Win32 Per Windows NT & 2000

Formato Di Destinazione Scelto: : Routine Interne WAV
Formato Sample : 44.100 Hz; 16 Bit; Stereo


TOC Del CD Estratto

Traccia | Inizio | Lunghezza | Inizio Settore | Fine Settore
––––––––––––––––––––––––––––––––
1 | 0:00.00 | 24:02.08 | 0 | 108157
2 | 24:02.08 | 14:16.16 | 108158 | 172373
3 | 38:18.24 | 9:34.60 | 172374 | 215483
4 | 47:53.09 | 4:51.74 | 215484 | 237382


Stato Intervallo Ed Errori

Intervallo Selezionato

Nome File C:\avaxhome\John Cage - Concerto for Piano.wav

Livello Di Picco 100.0 %
Qualità Intervallo 100.0 %
Copia CRC 37FB6732
Copia Corretta

Non Sono Stati Riscontrati Errori


Sommario Accuraterip

Traccia 1 Non Presente Nel Database
Traccia 2 Non Presente Nel Database
Traccia 3 Non Presente Nel Database
Traccia 4 Non Presente Nel Database

Nessuna Delle Tracce è Presente Nel Database AccurateRip

Fine Del Resoconto Di Stato


download:
part 1
part 2
part 3

cover+book:
cover