Subcategories

John Denver - The Essential John Denver (2007)

Posted By: Pisulik
John Denver - The Essential John Denver (2007)

John Denver - The Essential John Denver (2007)
EAC Rip | FLAC (Tracks) +cue, log, m3u, artworks - 761 MB | MP3 CBR 320 kbps - 312 MB | 02:16:41
Folk Pop, Folk Rock, Soft Rock, Singer/Songwriter | Label: RCA

There is no shortage of excellent John Denver compilations, and RCA Legacy's two-disc Essential John Denver collection doesn't disappoint. All of the hits are here ("Rocky Mountain High," "Calypso," "Back Home Again," "Annie's Song," "Perhaps Love," etc.), and the sequencing is linear and concise. Fans looking for a more diminutive yet equally satisfying overview should check out 2005's Definitive All-Time Greatest Hits, but for the discerning listener looking to capture the full scope of the late country-pop great, this rich slab of history will more than suffice.

TRACKLIST

CD1

01. Leaving, On A Jet Plane
02. Rhymes & Reasons
03. Take Me Home, Country Roads
04. Poems, Prayers And Promises
05. I Guess He'd Rather Be In Colorado
06. Friends With You
07. Rocky Mountain High
08. Goodbye Again
09. I'd Rather Be A Cowboy (Lady's Chains)
10. Farewell Andromeda (Welcome To My Morning)
11. Sunshine On My Shoulders
12. Back Home Again
13. Matthew (
14. Thank God I'm A Country Boy
15. Annie's Song
16. Sweet Surrender
17. Looking For Space
18. I'm Sorry

Exact Audio Copy V1.0 beta 3 from 29. August 2011

EAC extraction logfile from 24. March 2012, 6:32

John Denver / The Essential John Denver (Disc 1)

Used drive : TSSTcorpCDDVDW SH-S223L Adapter: 5 ID: 0

Read mode : Secure
Utilize accurate stream : Yes
Defeat audio cache : No
Make use of C2 pointers : No

Read offset correction : 6
Overread into Lead-In and Lead-Out : No
Fill up missing offset samples with silence : Yes
Delete leading and trailing silent blocks : No
Null samples used in CRC calculations : Yes
Used interface : Native Win32 interface for Win NT & 2000
Gap handling : Appended to previous track

Used output format : User Defined Encoder
Selected bitrate : 1024 kBit/s
Quality : High
Add ID3 tag : No
Command line compressor : C:\Program Files (x86)\Exact Audio Copy\FLAC\FLAC.EXE
Additional command line options : -6 -V -T "ARTIST=%artist%" -T "TITLE=%title%" -T "ALBUM=%albumtitle%" -T "DATE=%year%" -T "TRACKNUMBER=%tracknr%" -T "GENRE=%genre%" -T "COMMENT=%comment%" -T "BAND=%albuminterpret%" -T "ALBUMARTIST=%albuminterpret%" -T "COMPOSER=%composer%" %haslyrics%–tag-from-file=LYRICS="%lyricsfile%"%haslyrics% -T "DISCNUMBER=%cdnumber%" -T "TOTALDISCS=%totalcds%" -T "TOTALTRACKS=%numtracks%" %hascover%–picture="%coverfile%"%hascover% %source% -o %dest%


TOC of the extracted CD

Track | Start | Length | Start sector | End sector
––––––––––––––––––––––––––––-
1 | 0:00.00 | 3:40.35 | 0 | 16534
2 | 3:40.35 | 3:17.31 | 16535 | 31340
3 | 6:57.66 | 3:12.02 | 31341 | 45742
4 | 10:09.68 | 4:07.39 | 45743 | 64306
5 | 14:17.32 | 2:09.13 | 64307 | 73994
6 | 16:26.45 | 3:24.21 | 73995 | 89315
7 | 19:50.66 | 4:45.71 | 89316 | 110761
8 | 24:36.62 | 3:38.26 | 110762 | 127137
9 | 28:15.13 | 4:27.22 | 127138 | 147184
10 | 32:42.35 | 4:05.22 | 147185 | 165581
11 | 36:47.57 | 5:13.69 | 165582 | 189125
12 | 42:01.51 | 4:46.11 | 189126 | 210586
13 | 46:47.62 | 3:44.31 | 210587 | 227417
14 | 50:32.18 | 3:22.34 | 227418 | 242601
15 | 53:54.52 | 3:02.05 | 242602 | 256256
16 | 56:56.57 | 5:30.07 | 256257 | 281013
17 | 62:26.64 | 4:01.48 | 281014 | 299136
18 | 66:28.37 | 3:31.56 | 299137 | 315017


Track 1

Filename C:\Users\Admin\Documents\01 EAC Rips\01. Leaving On a Jet Plane - John Denver.wav

Pre-gap length 0:00:02.00

Peak level 89.1 %
Extraction speed 7.7 X
Track quality 100.0 %
Test CRC 94F24BF2
Copy CRC 94F24BF2
Accurately ripped (confidence 5) [EF5F19F7] (AR v1)
Copy OK

Track 2

Filename C:\Users\Admin\Documents\01 EAC Rips\02. Rhymes and Reasons - John Denver.wav

Pre-gap length 0:00:01.74

Peak level 89.4 %
Extraction speed 8.3 X
Track quality 100.0 %
Test CRC D923A544
Copy CRC D923A544
Accurately ripped (confidence 5) [7A6989BA] (AR v1)
Copy OK

Track 3

Filename C:\Users\Admin\Documents\01 EAC Rips\03. Take Me Home, Country Roads - John Denver.wav

Pre-gap length 0:00:01.74

Peak level 91.5 %
Extraction speed 8.9 X
Track quality 100.0 %
Test CRC 4D46B456
Copy CRC 4D46B456
Accurately ripped (confidence 5) [AC710F00] (AR v1)
Copy OK

Track 4

Filename C:\Users\Admin\Documents\01 EAC Rips\04. Poems, Prayers and Promises - John Denver.wav

Pre-gap length 0:00:01.74

Peak level 82.3 %
Extraction speed 9.4 X
Track quality 100.0 %
Test CRC EEDF8A75
Copy CRC EEDF8A75
Accurately ripped (confidence 5) [42F0CDED] (AR v1)
Copy OK

Track 5

Filename C:\Users\Admin\Documents\01 EAC Rips\05. I Guess He'd Rather Be in Colorado - John Denver.wav

Pre-gap length 0:00:01.74

Peak level 95.3 %
Extraction speed 9.8 X
Track quality 100.0 %
Test CRC BD63E81F
Copy CRC BD63E81F
Accurately ripped (confidence 5) [11F43662] (AR v1)
Copy OK

Track 6

Filename C:\Users\Admin\Documents\01 EAC Rips\06. Friends With You - John Denver.wav

Pre-gap length 0:00:01.74

Peak level 87.4 %
Extraction speed 10.3 X
Track quality 100.0 %
Test CRC 2C35E645
Copy CRC 2C35E645
Accurately ripped (confidence 5) [CEB50E98] (AR v1)
Copy OK

Track 7

Filename C:\Users\Admin\Documents\01 EAC Rips\07. Rocky Mountain High - John Denver.wav

Pre-gap length 0:00:01.74

Peak level 94.4 %
Extraction speed 10.9 X
Track quality 100.0 %
Test CRC 90D87479
Copy CRC 90D87479
Accurately ripped (confidence 5) [BE57F35A] (AR v1)
Copy OK

Track 8

Filename C:\Users\Admin\Documents\01 EAC Rips\08. Goodbye Again - John Denver.wav

Pre-gap length 0:00:01.74

Peak level 91.0 %
Extraction speed 11.4 X
Track quality 100.0 %
Test CRC E2CEFF66
Copy CRC E2CEFF66
Accurately ripped (confidence 5) [A9812F46] (AR v1)
Copy OK

Track 9

Filename C:\Users\Admin\Documents\01 EAC Rips\09. I'd Rather Be a Cowboy (Lady's Chains) - John Denver.wav

Pre-gap length 0:00:01.74

Peak level 83.3 %
Extraction speed 11.9 X
Track quality 100.0 %
Test CRC 27901736
Copy CRC 27901736
Accurately ripped (confidence 5) [E924343B] (AR v1)
Copy OK

Track 10

Filename C:\Users\Admin\Documents\01 EAC Rips\10. Farewell Andromeda (Welcome to My Morning) - John Denver.wav

Pre-gap length 0:00:01.74

Peak level 76.0 %
Extraction speed 12.3 X
Track quality 100.0 %
Test CRC 76497A1E
Copy CRC 76497A1E
Accurately ripped (confidence 5) [5F723E5D] (AR v1)
Copy OK

Track 11

Filename C:\Users\Admin\Documents\01 EAC Rips\11. Sunshine on My Shoulders - John Denver.wav

Pre-gap length 0:00:01.74

Peak level 84.1 %
Extraction speed 12.8 X
Track quality 100.0 %
Test CRC 096D2576
Copy CRC 096D2576
Accurately ripped (confidence 5) [EF700D3B] (AR v1)
Copy OK

Track 12

Filename C:\Users\Admin\Documents\01 EAC Rips\12. Back Home Again - John Denver.wav

Pre-gap length 0:00:01.74

Peak level 86.8 %
Extraction speed 11.9 X
Track quality 99.9 %
Test CRC 5A8B6D50
Copy CRC 5A8B6D50
Accurately ripped (confidence 5) [3206948B] (AR v1)
Copy OK

Track 13

Filename C:\Users\Admin\Documents\01 EAC Rips\13. Matthew - John Denver.wav

Pre-gap length 0:00:01.74

Peak level 83.8 %
Extraction speed 11.8 X
Track quality 99.9 %
Test CRC 597A18D1
Copy CRC 597A18D1
Accurately ripped (confidence 5) [BA28549A] (AR v1)
Copy OK

Track 14

Filename C:\Users\Admin\Documents\01 EAC Rips\14. Thank God I'm a Country Boy - John Denver.wav

Pre-gap length 0:00:01.74

Peak level 86.0 %
Extraction speed 13.8 X
Track quality 100.0 %
Test CRC A601E5BE
Copy CRC A601E5BE
Accurately ripped (confidence 5) [EA235C6E] (AR v1)
Copy OK

Track 15

Filename C:\Users\Admin\Documents\01 EAC Rips\15. Annie's Song - John Denver.wav

Pre-gap length 0:00:01.74

Peak level 86.3 %
Extraction speed 14.1 X
Track quality 100.0 %
Test CRC 78DC87DE
Copy CRC 78DC87DE
Accurately ripped (confidence 5) [3E4797E3] (AR v1)
Copy OK

Track 16

Filename C:\Users\Admin\Documents\01 EAC Rips\16. Sweet Surrender - John Denver.wav

Pre-gap length 0:00:01.74

Peak level 86.3 %
Extraction speed 14.7 X
Track quality 100.0 %
Test CRC 36ED0543
Copy CRC 36ED0543
Accurately ripped (confidence 5) [4EA09936] (AR v1)
Copy OK

Track 17

Filename C:\Users\Admin\Documents\01 EAC Rips\17. Looking for Space - John Denver.wav

Pre-gap length 0:00:01.74

Peak level 94.1 %
Extraction speed 14.9 X
Track quality 100.0 %
Test CRC AA440FB0
Copy CRC AA440FB0
Accurately ripped (confidence 5) [C348BBE9] (AR v1)
Copy OK

Track 18

Filename C:\Users\Admin\Documents\01 EAC Rips\18. I'm Sorry - John Denver.wav

Pre-gap length 0:00:01.74

Peak level 93.3 %
Extraction speed 15.1 X
Track quality 100.0 %
Test CRC 7D491664
Copy CRC 7D491664
Accurately ripped (confidence 5) [BEAE503F] (AR v1)
Copy OK


All tracks accurately ripped

No errors occurred

End of status report


CD2

01. Calypso
02. Fly Away
03. Baby, You Look Good To Me Tonight
04. Like A Sad Song
05. How Can I Leave You Again
06. It Amazes Me
07. I Want To Live
08. My Sweet Lady
09. Autograph
10. Some Days Are Diamonds (Some Days Are Stone)
11. The Cowboy And The Lady
12. Seasons Of The Heart
13. Shanghai Breezes
14. Perhaps Love feat Plácido Domingo
15. Wild Montana Skies feat Emmylou Harris
16. Love Again
17. Dreamland Express
18. Is It Love?

Exact Audio Copy V1.0 beta 3 from 29. August 2011

EAC extraction logfile from 24. March 2012, 6:48

John Denver / The Essential John Denver , disc 2

Used drive : TSSTcorpCDDVDW SH-S223L Adapter: 5 ID: 0

Read mode : Secure
Utilize accurate stream : Yes
Defeat audio cache : No
Make use of C2 pointers : No

Read offset correction : 6
Overread into Lead-In and Lead-Out : No
Fill up missing offset samples with silence : Yes
Delete leading and trailing silent blocks : No
Null samples used in CRC calculations : Yes
Used interface : Native Win32 interface for Win NT & 2000
Gap handling : Appended to previous track

Used output format : User Defined Encoder
Selected bitrate : 1024 kBit/s
Quality : High
Add ID3 tag : No
Command line compressor : C:\Program Files (x86)\Exact Audio Copy\FLAC\FLAC.EXE
Additional command line options : -6 -V -T "ARTIST=%artist%" -T "TITLE=%title%" -T "ALBUM=%albumtitle%" -T "DATE=%year%" -T "TRACKNUMBER=%tracknr%" -T "GENRE=%genre%" -T "COMMENT=%comment%" -T "BAND=%albuminterpret%" -T "ALBUMARTIST=%albuminterpret%" -T "COMPOSER=%composer%" %haslyrics%–tag-from-file=LYRICS="%lyricsfile%"%haslyrics% -T "DISCNUMBER=%cdnumber%" -T "TOTALDISCS=%totalcds%" -T "TOTALTRACKS=%numtracks%" %hascover%–picture="%coverfile%"%hascover% %source% -o %dest%


TOC of the extracted CD

Track | Start | Length | Start sector | End sector
––––––––––––––––––––––––––––-
1 | 0:00.00 | 3:38.00 | 0 | 16349
2 | 3:38.00 | 4:11.50 | 16350 | 35224
3 | 7:49.50 | 2:49.29 | 35225 | 47928
4 | 10:39.04 | 3:44.24 | 47929 | 64752
5 | 14:23.28 | 3:10.49 | 64753 | 79051
6 | 17:34.02 | 2:39.12 | 79052 | 90988
7 | 20:13.14 | 3:49.00 | 90989 | 108163
8 | 24:02.14 | 4:50.60 | 108164 | 129973
9 | 28:52.74 | 3:39.69 | 129974 | 146467
10 | 32:32.68 | 4:01.51 | 146468 | 164593
11 | 36:34.44 | 4:38.09 | 164594 | 185452
12 | 41:12.53 | 3:50.51 | 185453 | 202753
13 | 45:03.29 | 3:14.64 | 202754 | 217367
14 | 48:18.18 | 2:58.65 | 217368 | 230782
15 | 51:17.08 | 4:05.11 | 230783 | 249168
16 | 55:22.19 | 2:54.37 | 249169 | 262255
17 | 58:16.56 | 4:08.20 | 262256 | 280875
18 | 62:25.01 | 4:15.54 | 280876 | 300054


Track 1

Filename C:\Users\Admin\Documents\01 EAC Rips\01. Calypso - John Denver.wav

Pre-gap length 0:00:02.00

Peak level 94.3 %
Extraction speed 7.3 X
Track quality 100.0 %
Test CRC 50A47C2A
Copy CRC 50A47C2A
Accurately ripped (confidence 5) [9F876922] (AR v1)
Copy OK

Track 2

Filename C:\Users\Admin\Documents\01 EAC Rips\02. Fly Away - John Denver.wav

Pre-gap length 0:00:01.74

Peak level 99.8 %
Extraction speed 7.4 X
Track quality 99.9 %
Test CRC A952F8E0
Copy CRC A952F8E0
Accurately ripped (confidence 5) [F617C245] (AR v1)
Copy OK

Track 3

Filename C:\Users\Admin\Documents\01 EAC Rips\03. Baby, You Look Good To Me Tonight - John Denver.wav

Pre-gap length 0:00:01.74

Peak level 97.7 %
Extraction speed 8.7 X
Track quality 100.0 %
Test CRC 3B934835
Copy CRC 3B934835
Accurately ripped (confidence 5) [26864A87] (AR v1)
Copy OK

Track 4

Filename C:\Users\Admin\Documents\01 EAC Rips\04. Like A Sad Song - John Denver.wav

Pre-gap length 0:00:01.74

Peak level 99.8 %
Extraction speed 9.2 X
Track quality 100.0 %
Test CRC A9F7C34E
Copy CRC A9F7C34E
Accurately ripped (confidence 5) [E043D851] (AR v1)
Copy OK

Track 5

Filename C:\Users\Admin\Documents\01 EAC Rips\05. How Can I Leave You Again - John Denver.wav

Pre-gap length 0:00:01.74

Peak level 100.0 %
Extraction speed 9.7 X
Track quality 100.0 %
Test CRC E6B173F4
Copy CRC E6B173F4
Accurately ripped (confidence 5) [96AA1636] (AR v1)
Copy OK

Track 6

Filename C:\Users\Admin\Documents\01 EAC Rips\06. It Amazes Me - John Denver.wav

Pre-gap length 0:00:01.74

Peak level 100.0 %
Extraction speed 10.1 X
Track quality 100.0 %
Test CRC BA42C0CC
Copy CRC BA42C0CC
Accurately ripped (confidence 5) [2B0F9623] (AR v1)
Copy OK

Track 7

Filename C:\Users\Admin\Documents\01 EAC Rips\07. I Want To Live - John Denver.wav

Pre-gap length 0:00:01.74

Peak level 99.6 %
Extraction speed 10.5 X
Track quality 100.0 %
Test CRC E5EED0CB
Copy CRC E5EED0CB
Accurately ripped (confidence 5) [958A1281] (AR v1)
Copy OK

Track 8

Filename C:\Users\Admin\Documents\01 EAC Rips\08. My Sweet Lady - John Denver.wav

Pre-gap length 0:00:01.74

Peak level 99.6 %
Extraction speed 10.1 X
Track quality 99.9 %
Test CRC 9F1B2D89
Copy CRC 9F1B2D89
Accurately ripped (confidence 5) [F9FE0F07] (AR v1)
Copy OK

Track 9

Filename C:\Users\Admin\Documents\01 EAC Rips\09. Autograph - John Denver.wav

Pre-gap length 0:00:01.74

Peak level 91.2 %
Extraction speed 11.5 X
Track quality 100.0 %
Test CRC F7969973
Copy CRC F7969973
Accurately ripped (confidence 5) [10E5F388] (AR v1)
Copy OK

Track 10

Filename C:\Users\Admin\Documents\01 EAC Rips\10. Some Days Are Diamonds (Some Days Are Stone) - John Denver.wav

Pre-gap length 0:00:01.74

Peak level 98.5 %
Extraction speed 10.5 X
Track quality 99.9 %
Test CRC 56222CC5
Copy CRC 56222CC5
Accurately ripped (confidence 5) [FA078427] (AR v1)
Copy OK

Track 11

Filename C:\Users\Admin\Documents\01 EAC Rips\11. The Cowboy And The Lady - John Denver.wav

Pre-gap length 0:00:01.74

Peak level 72.4 %
Extraction speed 12.5 X
Track quality 100.0 %
Test CRC ED94105D
Copy CRC ED94105D
Accurately ripped (confidence 5) [B7C6987E] (AR v1)
Copy OK

Track 12

Filename C:\Users\Admin\Documents\01 EAC Rips\12. Seasons Of The Heart - John Denver.wav

Pre-gap length 0:00:01.74

Peak level 98.2 %
Extraction speed 12.8 X
Track quality 100.0 %
Test CRC 8501CC4E
Copy CRC 8501CC4E
Accurately ripped (confidence 5) [1D0E4510] (AR v1)
Copy OK

Track 13

Filename C:\Users\Admin\Documents\01 EAC Rips\13. Shanghai Breezes - John Denver.wav

Pre-gap length 0:00:01.74

Peak level 94.4 %
Extraction speed 11.2 X
Track quality 99.9 %
Test CRC 1DFDBCCC
Copy CRC 1DFDBCCC
Accurately ripped (confidence 5) [062FBC9E] (AR v1)
Copy OK

Track 14

Filename C:\Users\Admin\Documents\01 EAC Rips\14. Perhaps Love w. Placido Domingo - John Denver.wav

Pre-gap length 0:00:01.74

Peak level 93.3 %
Extraction speed 13.4 X
Track quality 100.0 %
Test CRC AE4F31E1
Copy CRC AE4F31E1
Accurately ripped (confidence 5) [93E50A21] (AR v1)
Copy OK

Track 15

Filename C:\Users\Admin\Documents\01 EAC Rips\15. Wild Montana Skies w. Emmylou Harris - John Denver.wav

Pre-gap length 0:00:01.74

Peak level 100.0 %
Extraction speed 13.9 X
Track quality 100.0 %
Test CRC 6702351D
Copy CRC 6702351D
Accurately ripped (confidence 5) [94598955] (AR v1)
Copy OK

Track 16

Filename C:\Users\Admin\Documents\01 EAC Rips\16. Love Again - John Denver.wav

Pre-gap length 0:00:01.74

Peak level 100.0 %
Extraction speed 13.9 X
Track quality 100.0 %
Test CRC E0DBFD20
Copy CRC E0DBFD20
Accurately ripped (confidence 5) [F1839B32] (AR v1)
Copy OK

Track 17

Filename C:\Users\Admin\Documents\01 EAC Rips\17. Dreamland Express - John Denver.wav

Pre-gap length 0:00:01.74

Peak level 97.7 %
Extraction speed 14.4 X
Track quality 100.0 %
Test CRC 4F2A6740
Copy CRC 4F2A6740
Accurately ripped (confidence 5) [C466FE3B] (AR v1)
Copy OK

Track 18

Filename C:\Users\Admin\Documents\01 EAC Rips\18. Is It Love - John Denver.wav

Pre-gap length 0:00:01.74

Peak level 71.5 %
Extraction speed 14.8 X
Track quality 100.0 %
Test CRC 3289445D
Copy CRC 3289445D
Accurately ripped (confidence 5) [9DE29350] (AR v1)
Copy OK


All tracks accurately ripped

No errors occurred

End of status report


All thanks go to the original releaser