Subcategories

John Mayall with Eric Clapton - Blues Breakers (1966) [24 KT + Gold CD, 2009] (Repost)

Posted By: gribovar
John Mayall with Eric Clapton - Blues Breakers (1966) [24 KT + Gold CD, 2009] (Repost)

John Mayall with Eric Clapton - Blues Breakers (1966) [24 KT + Gold CD, 2009]
EAC Rip | WavPack (image+.cue+log) - 160 MB | MP3 CBR 320 kbps (LAME 3.93) - 88 MB | Covers - 48 MB
Genre: Blues, Blues Rock | RAR 3% Rec. | Label: Audio Fidelity (AFZ 056), Mono, HDCD

Blues Breakers with Eric Clapton was Eric Clapton's first fully realized album as a blues guitarist - more than that, it was a seminal blues album of the 1960s, perhaps the best British blues album ever cut, and the best LP ever recorded by John Mayall's Bluesbreakers. Standing midway between Clapton's stint with the Yardbirds and the formation of Cream, this album featured the new guitar hero on a series of stripped-down blues standards, Mayall pieces, and one Mayall/Clapton composition, all of which had him stretching out in the idiom for the first time in the studio. This album was the culmination of a very successful year of playing with John Mayall, a fully realized blues creation, featuring sounds very close to the group's stage performances, and with no compromises. Credit has to go to producer Mike Vernon for the purity and simplicity of the record; most British producers of that era wouldn't have been able to get it recorded this way, much less released. One can hear the very direct influence of Buddy Guy and a handful of other American bluesmen in the playing. And lest anyone forget the rest of the quartet: future pop/rock superstar John McVie and drummer Hughie Flint provide a rock-hard rhythm section, and Mayall's organ playing, vocalizing, and second guitar are all of a piece with Clapton's work. His guitar naturally dominates most of this record, and he can also be heard taking his first lead vocal, but McVie and Flint are just as intense and give the tracks an extra level of steel-strung tension and power, none of which have diminished across several decades.
Tracklist:
01. All Your Love
02. Hideaway
03. Little Girl
04. Another Man
05. Double Crossing Time
06. What'd I Say
07. Key to Love
08. Parchman Farm
09. Have You Heard
10. Ramblin' on My Mind
11. Steppin' Out
12. It Ain't Right

Total time: 37:42

Exact Audio Copy V0.99 prebeta 4 from 23. January 2008

EAC extraction logfile from 3. December 2009, 15:33

John Mayall & the Bluesbreakers featuring Eric Clapton / Blues Breakers with Eric Clapton (Gold HDCD)

Used drive : _NEC DVD_RW ND-3520A Adapter: 1 ID: 1

Read mode : Secure
Utilize accurate stream : Yes
Defeat audio cache : Yes
Make use of C2 pointers : No

Read offset correction : 48
Overread into Lead-In and Lead-Out : No
Fill up missing offset samples with silence : Yes
Delete leading and trailing silent blocks : No
Null samples used in CRC calculations : Yes
Used interface : Installed external ASPI interface

Used output format : Internal WAV Routines
Sample format : 44.100 Hz; 16 Bit; Stereo


TOC of the extracted CD

Track | Start | Length | Start sector | End sector
––––––––––––––––––––––––––––-
1 | 0:00.00 | 3:36.64 | 0 | 16263
2 | 3:36.64 | 3:16.71 | 16264 | 31034
3 | 6:53.60 | 2:36.56 | 31035 | 42790
4 | 9:30.41 | 1:46.13 | 42791 | 50753
5 | 11:16.54 | 3:03.62 | 50754 | 64540
6 | 14:20.41 | 4:30.21 | 64541 | 84811
7 | 18:50.62 | 2:09.01 | 84812 | 94487
8 | 20:59.63 | 2:22.06 | 94488 | 105143
9 | 23:21.69 | 5:56.27 | 105144 | 131870
10 | 29:18.21 | 3:09.08 | 131871 | 146053
11 | 32:27.29 | 2:30.57 | 146054 | 157360
12 | 34:58.11 | 2:43.40 | 157361 | 169625


Range status and errors

Selected range

Filename E:\Blues Breakers\Blues Breakers with Eric Clapton (Gold HDCD).wav

Peak level 93.8 %
Range quality 100.0 %
Test CRC DE4F5A9C
Copy CRC DE4F5A9C
Copy OK

No errors occurred


AccurateRip summary

Track 1 not present in database
Track 2 not present in database
Track 3 not present in database
Track 4 not present in database
Track 5 not present in database
Track 6 not present in database
Track 7 not present in database
Track 8 not present in database
Track 9 not present in database
Track 10 not present in database
Track 11 not present in database
Track 12 not present in database

None of the tracks are present in the AccurateRip database

End of status report

[CUETools log; Date: 16.11.2017 12:35:13; Version: 2.1.4]
HDCD: peak extend: none, transient filter: some, gain: none
[CTDB TOCID: xMog2Pxa91rDBlOOxsChqh3wsBw-] found.
Track | CTDB Status
1 | (27/28) Accurately ripped
2 | (27/28) Accurately ripped
3 | (27/28) Accurately ripped
4 | (27/28) Accurately ripped
5 | (27/28) Accurately ripped
6 | (27/28) Accurately ripped
7 | (27/28) Accurately ripped
8 | (27/28) Accurately ripped
9 | (27/28) Accurately ripped
10 | (27/28) Accurately ripped
11 | (27/28) Accurately ripped
12 | (27/28) Accurately ripped
[AccurateRip ID: 0010b455-009c70b8-8b08d50c] found.
Track [ CRC | V2 ] Status
01 [9c3ef56a|6840fcf1] (41+42/83) Accurately ripped
02 [c7237a24|b3f60573] (41+42/83) Accurately ripped
03 [e3dca12e|08a33cfc] (41+42/83) Accurately ripped
04 [a653366e|672f6209] (41+42/83) Accurately ripped
05 [0ef96a8e|b3317d54] (41+42/83) Accurately ripped
06 [58896c7a|684d33e6] (41+42/83) Accurately ripped
07 [7e645c4a|a32f93dd] (41+42/83) Accurately ripped
08 [fd5b99d5|6092aeec] (41+42/83) Accurately ripped
09 [088fff17|a8401f01] (41+42/83) Accurately ripped
10 [48cc4e03|87bfca6d] (41+42/83) Accurately ripped
11 [9c4a5568|28bc12eb] (41+42/83) Accurately ripped
12 [8970f89a|8e41c0e0] (41+42/83) Accurately ripped

Track Peak [ CRC32 ] [W/O NULL] [ LOG ]
– 93,8 [DE4F5A9C] [3783B3C1] CRC32
01 92,0 [3298E454] [62A55E1C]
02 89,0 [BF216319] [5F703553]
03 90,7 [B496AB09] [6910F2F7]
04 84,6 [9C594AC5] [86903BA3]
05 93,6 [E3BD62E3] [720A0633]
06 88,8 [0EF27352] [7F18377A]
07 85,0 [00AC2970] [9D9B0FE5]
08 93,8 [BB59303D] [DF727623]
09 88,6 [3709DB6D] [51700BE7]
10 72,9 [0FEB8B0B] [F7CB2966]
11 78,5 [EB2CA720] [7B4D0F82]
12 83,3 [B98F2D30] [2DE3BBE0]

Thanks to taurus66