Subcategories

John Scofield / John Abercrombie - Solar (1983) {West Wind}

Posted By: tiburon
John Scofield / John Abercrombie - Solar (1983) {West Wind}

John Scofield / John Abercrombie - Solar (1983) {West Wind}
EAC 0.95b4 | FLAC Image level 8 | Cue+Log | Full Scans 300dpi | 177MB + 5% Recovery
MP3 CBR 320 Kbps | 102MB + 5% Recovery
Genre: Fusion, Post-Bop

Guitarists John Abercrombie and John Scofield join forces for these early-'80s sessions, mostly duets while occasionally adding bassist George Mraz and drummer Peter Donald. They delve into the jazz canon with an intricate duet of "Solar," a driving, Latin-fused take of "Four on Six" (in which Abercrombie overdubs an electric mandolin), and a dreamy duo interpretation of "If You Could See Me Now." The sole standard, "I Should Care," fares just as well in their hands, which settles into a relaxed exchange between the two players as if they are playing for themselves alone. Scofield's "Small Wonder" is scored for the quartet, a bristling post-bop vehicle with a feature for Mraz as well. Abercrombie's introspective "Sing Song" best contrasts the styles of the two leaders, with the composer a bit more melodic and Scofield with a more brittle attack. This is an enjoyable CD that has stood the test of time very well.
Track List
1. Solar
2. Even Steven
3. Four On Six
4. Sing Song
5. Small Wonder
6. I Should Care
7. If You Could See Me

musicians
John Scofield - guitar
John Abercrombie - guitar, electric mandolin
George Mraz - bass
Peter Donald - drums

Produced by Orrin Keepnews


EAC extraction logfile from 20. July 2007, 14:42 for CD
John Scofield and John Abercrombie / Solar (1983)

Used drive : LITE-ON DVDRW LH-20A1P Adapter: 0 ID: 0
Read mode : Secure with NO C2, accurate stream, disable cache
Read offset correction : 6
Overread into Lead-In and Lead-Out : No

Used output format : C:\Program Files\Monkey's Audio\MAC.exe (Monkey's Audio Lossless Encoder)
Normal Lossless Compression

Other options :
Fill up missing offset samples with silence : Yes
Delete leading and trailing silent blocks : No
Installed external ASPI interface


Range status and errors
Selected range
Filename E:\Image files\Guitar Image-26\John Scofield and John Abercrombie - Solar (1983)\CDImage.wav

Peak level 96.6 %
Range quality 99.9 %
CRC 5BCC4690
Copy OK

No errors occured

End of status report


––––––––––––––––––––––––––––––––––––––––
Analyzed: John Scofield and John Abercrombie / Solar (1983)
––––––––––––––––––––––––––––––––––––––––

DR Peak RMS Duration Track
––––––––––––––––––––––––––––––––––––––––
DR13 -0.50 dB -20.91 dB 4:10 01-Solar
DR11 -3.92 dB -18.82 dB 6:52 02-Even Steven
DR13 -0.30 dB -16.00 dB 6:26 03-Four On Six
DR12 -2.51 dB -19.71 dB 6:22 04-Sing Song
DR14 -0.60 dB -17.75 dB 6:21 05-Small Wonder
DR13 -5.23 dB -22.58 dB 6:40 06-I Should Care
DR13 -4.23 dB -21.22 dB 6:02 07-If You Could See Me Now
––––––––––––––––––––––––––––––––––––––––

Number of tracks: 7
Official DR value: DR13

Samplerate: 44100 Hz
Channels: 2
Bits per sample: 16
Bitrate: 565 kbps
Codec: FLAC
================================================================================

John Scofield / John Abercrombie - Solar (1983) {West Wind}
John Scofield / John Abercrombie - Solar (1983) {West Wind}
John Scofield / John Abercrombie - Solar (1983) {West Wind}


Thanks to the original ripper