Subcategories
Tags
Language
Tags

Johnny Cash - At San Quentin (The Complete 1969 Concert) (1969) Expanded Reissue 2000

Posted By: Designol
Johnny Cash - At San Quentin (The Complete 1969 Concert) (1969) Expanded Reissue 2000

Johnny Cash - At San Quentin (The Complete 1969 Concert) (1969) Expanded Reissue 2000
EAC | FLAC | Tracks (Cue&Log) ~ 385 Mb | Mp3 (CBR320) ~ 170 Mb | Scans included
Country, Country-Rock, Rock & Roll, Gospel

While Johnny Cash at Folsom Prison, the 1968 album that made Cash a household word, spent only two weeks at No. 1, this 1969 follow-up topped the charts for 20 weeks. As with Folsom, the San Quentin LP had to be edited due to space limitations. Now, 31 years after the fact, the show can at last be heard in true perspective. All the original performances hold up, including the album's hit single: Shel Silverstein's "A Boy Named Sue," presented unbleeped for the first time. Equally impressive are the eight restored tracks and unexpurgated between-song patter. Cash's opening renditions of "Big River" and "I Still Miss Someone" are bracing. So are four closing songs teaming Cash with his complete performing troupe (the Carter Family, Carl Perkins, and the Statler Brothers). Their gospel performances ("He Turned the Water into Wine," "The Old Account," and an early version of "Daddy Sang Bass") are electrifying, as is a concluding medley featuring everyone. Cash is presented here at his roaring, primal best.

Review by Rich Kienzle

To put the performance on Johnny Cash at San Quentin in a bit of perspective: Johnny Cash's key partner in the Tennessee Two, guitarist Luther Perkins, died in August 1968, just seven months before this set was recorded in February 1969. In addition to that, Cash was nearing the peak of his popularity – his 1968 live album, At Folsom Prison, was a smash success – but he was nearly at his wildest in his personal life, which surely spilled over into his performance. All of this sets the stage for Johnny Cash at San Quentin, a nominal sequel to At Folsom Prison that surpasses its predecessor and captures Cash at his rawest and wildest. Part of this is due to how he feeds off of his captive audience, playing to the prisoners and seeming like one of them, but it's also due to the shifting dynamic within the band. Without Perkins, Cash isn't tied to the percolating two-step that defined his music to that point. Sure, it's still there, but it has a different feel coming from a different guitarist, and Cash sounds unhinged as he careens through his jailhouse ballads, old hits, and rockabilly-styled ravers, and even covers the Lovin' Spoonful ("Darlin' Companion"). No other Johnny Cash record sounds as wild as this. He sounds like an outlaw and renegade here, which is what gives it power – listen to "A Boy Named Sue," a Shel Silverstein composition that could have been too cute by half, but is rescued by the wild-eyed, committed performance by Cash, where it sounds like he really was set on murdering that son of a bitch who named him Sue. He sounds that way throughout the record, and while most of the best moments did make it to the original 1969 album, the 2000 Columbia/Legacy release eclipses it by presenting nine previously unreleased bonus tracks, doubling the album's length, and presenting such insanely wild numbers as "Big River" as well as sweeter selections like "Daddy Sang Bass." Now, that's the only way to get the record, and that's how it should be, because this extra material makes a legendary album all the greater – in fact, it helps make a case that this is the best Johnny Cash album ever cut.

Review by Stephen Thomas Erlewine, Allmusic.com

Johnny Cash - At San Quentin (The Complete 1969 Concert) (1969) Expanded Reissue 2000

Johnny Cash - At San Quentin (The Complete 1969 Concert) (1969) Expanded Reissue 2000



Tracklist:

01. Big River (01:56)
02. I Still Miss Someone (01:51)
03. Wreck Of The Old 97 (02:04)
04. I Walk The Line (03:29)
05. Darlin' Companion (03:21)
06. I Don't Know Where I'm Bound (02:23)
07. Starkville City Jail (06:14)
08. San Quentin (04:06)
09. San Quentin (03:13)
10. Wanted Man (03:24)
11. A Boy Named Sue (03:58)
12. (There'll Be) Peace In The Valley (02:30)
13. Folsom Prison Blues (04:23)
14. Ring Of Fire (02:07)
15. He Turned The Water Into Wine (04:01)
16. Daddy Sang Bass (02:42)
17. The Old Account Was Settled Long Ago (02:16)
18. Closing Medley; Folsom Prison Blues- I Walk The Line- Ring Of Fire- The Rebel-Johnny Yuma (05:08)


Exact Audio Copy V1.0 beta 4 from 7. December 2014

EAC extraction logfile from 15. October 2016, 20:42

Johnny Cash / At San Quentin (The Complete 1969 Concert)

Used drive : TSSTcorpCDDVDW SH-224DB Adapter: 1 ID: 0

Read mode : Secure
Utilize accurate stream : Yes
Defeat audio cache : Yes
Make use of C2 pointers : No

Read offset correction : 6
Overread into Lead-In and Lead-Out : No
Fill up missing offset samples with silence : Yes
Delete leading and trailing silent blocks : No
Null samples used in CRC calculations : Yes
Used interface : Native Win32 interface for Win NT & 2000
Gap handling : Appended to previous track

Used output format : User Defined Encoder
Selected bitrate : 896 kBit/s
Quality : High
Add ID3 tag : No
Command line compressor : C:\Program Files\Exact Audio Copy\Flac\flac.exe
Additional command line options : -6 -V -T "ARTIST=%artist%" -T "TITLE=%title%" -T "ALBUM=%albumtitle%" -T "DATE=%year%" -T "TRACKNUMBER=%tracknr%" -T "GENRE=%genre%" -T "COMMENT=%comment%" %source% -o %dest%


TOC of the extracted CD

Track | Start | Length | Start sector | End sector
––––––––––––––––––––––––––––-
1 | 0:00.00 | 1:56.10 | 0 | 8709
2 | 1:56.10 | 1:51.62 | 8710 | 17096
3 | 3:47.72 | 2:04.65 | 17097 | 26461
4 | 5:52.62 | 3:29.20 | 26462 | 42156
5 | 9:22.07 | 3:21.18 | 42157 | 57249
6 | 12:43.25 | 2:23.60 | 57250 | 68034
7 | 15:07.10 | 6:14.42 | 68035 | 96126
8 | 21:21.52 | 4:06.63 | 96127 | 114639
9 | 25:28.40 | 3:13.20 | 114640 | 129134
10 | 28:41.60 | 3:24.15 | 129135 | 144449
11 | 32:06.00 | 3:58.72 | 144450 | 162371
12 | 36:04.72 | 2:30.10 | 162372 | 173631
13 | 38:35.07 | 4:23.63 | 173632 | 193419
14 | 42:58.70 | 2:07.00 | 193420 | 202944
15 | 45:05.70 | 4:01.00 | 202945 | 221019
16 | 49:06.70 | 2:42.42 | 221020 | 233211
17 | 51:49.37 | 2:16.05 | 233212 | 243416
18 | 54:05.42 | 5:08.30 | 243417 | 266546


Track 1

Filename C:\New Folder\01 - Big River.wav

Pre-gap length 0:00:02.00

Peak level 100.0 %
Extraction speed 1.4 X
Track quality 100.0 %
Test CRC 11937FC7
Copy CRC 11937FC7
Accurately ripped (confidence 150) [9E354978] (AR v2)
Copy OK

Track 2

Filename C:\New Folder\02 - I Still Miss Someone.wav

Peak level 99.9 %
Extraction speed 1.5 X
Track quality 100.0 %
Test CRC C5C5C859
Copy CRC C5C5C859
Accurately ripped (confidence 152) [ED99D537] (AR v2)
Copy OK

Track 3

Filename C:\New Folder\03 - Wreck Of The Old 97.wav

Peak level 100.0 %
Extraction speed 1.6 X
Track quality 100.0 %
Test CRC 52018536
Copy CRC 52018536
Accurately ripped (confidence 153) [A0BFBC58] (AR v2)
Copy OK

Track 4

Filename C:\New Folder\04 - I Walk The Line.wav

Peak level 100.0 %
Extraction speed 1.9 X
Track quality 100.0 %
Test CRC A4C613FB
Copy CRC A4C613FB
Accurately ripped (confidence 153) [3C25D589] (AR v2)
Copy OK

Track 5

Filename C:\New Folder\05 - Darlin' Companion.wav

Peak level 99.9 %
Extraction speed 2.0 X
Track quality 100.0 %
Test CRC ECD30F67
Copy CRC ECD30F67
Accurately ripped (confidence 153) [3811B5EB] (AR v2)
Copy OK

Track 6

Filename C:\New Folder\06 - I Don't Know Where I'm Bound.wav

Peak level 99.9 %
Extraction speed 2.0 X
Track quality 100.0 %
Test CRC AB4B8ACC
Copy CRC AB4B8ACC
Accurately ripped (confidence 152) [9F09E894] (AR v2)
Copy OK

Track 7

Filename C:\New Folder\07 - Starkville City Jail.wav

Peak level 100.0 %
Extraction speed 2.5 X
Track quality 100.0 %
Test CRC 855BA843
Copy CRC 855BA843
Accurately ripped (confidence 153) [037077CB] (AR v2)
Copy OK

Track 8

Filename C:\New Folder\08 - San Quentin.wav

Peak level 100.0 %
Extraction speed 2.6 X
Track quality 100.0 %
Test CRC 2CE1D324
Copy CRC 2CE1D324
Accurately ripped (confidence 153) [AC11B2C8] (AR v2)
Copy OK

Track 9

Filename C:\New Folder\09 - San Quentin.wav

Peak level 96.0 %
Extraction speed 2.6 X
Track quality 100.0 %
Test CRC 6714C019
Copy CRC 6714C019
Accurately ripped (confidence 153) [048A27A9] (AR v2)
Copy OK

Track 10

Filename C:\New Folder\10 - Wanted Man.wav

Peak level 99.9 %
Extraction speed 2.2 X
Track quality 99.9 %
Test CRC 0D494D62
Copy CRC 0D494D62
Accurately ripped (confidence 152) [985357CC] (AR v2)
Copy OK

Track 11

Filename C:\New Folder\11 - A Boy Named Sue.wav

Peak level 100.0 %
Extraction speed 2.9 X
Track quality 100.0 %
Test CRC F7FED4C4
Copy CRC F7FED4C4
Accurately ripped (confidence 154) [2D63DAB0] (AR v2)
Copy OK

Track 12

Filename C:\New Folder\12 - (There'll Be) Peace In The Valley.wav

Peak level 86.1 %
Extraction speed 2.7 X
Track quality 100.0 %
Test CRC 357DE82F
Copy CRC 357DE82F
Accurately ripped (confidence 153) [B649E6AC] (AR v2)
Copy OK

Track 13

Filename C:\New Folder\13 - Folsom Prison Blues.wav

Peak level 99.9 %
Extraction speed 3.1 X
Track quality 100.0 %
Test CRC 13FB9BA1
Copy CRC 13FB9BA1
Accurately ripped (confidence 153) [34967B49] (AR v2)
Copy OK

Track 14

Filename C:\New Folder\14 - Ring Of Fire.wav

Peak level 99.9 %
Extraction speed 2.8 X
Track quality 100.0 %
Test CRC A84AB40E
Copy CRC A84AB40E
Accurately ripped (confidence 153) [B184C151] (AR v2)
Copy OK

Track 15

Filename C:\New Folder\15 - He Turned The Water Into Wine.wav

Peak level 99.9 %
Extraction speed 2.6 X
Track quality 99.9 %
Test CRC FB5516E0
Copy CRC FB5516E0
Accurately ripped (confidence 152) [69964551] (AR v2)
Copy OK

Track 16

Filename C:\New Folder\16 - Daddy Sang Bass.wav

Peak level 99.9 %
Extraction speed 3.1 X
Track quality 100.0 %
Test CRC 747E7C10
Copy CRC 747E7C10
Accurately ripped (confidence 153) [904D2CDF] (AR v2)
Copy OK

Track 17

Filename C:\New Folder\17 - The Old Account Was Settled Long Ago.wav

Peak level 100.0 %
Extraction speed 3.0 X
Track quality 100.0 %
Test CRC 216D7A79
Copy CRC 216D7A79
Accurately ripped (confidence 153) [75BE4960] (AR v2)
Copy OK

Track 18

Filename C:\New Folder\18 - Closing Medley; Folsom Prison Blues- I Walk The Line- Ring Of Fire- The Rebel-Johnny Yuma.wav

Peak level 100.0 %
Extraction speed 2.9 X
Track quality 99.9 %
Test CRC 4EC67F40
Copy CRC 4EC67F40
Accurately ripped (confidence 152) [C5746472] (AR v2)
Copy OK


All tracks accurately ripped

No errors occurred

End of status report

–– CUETools DB Plugin V2.1.4

[CTDB TOCID: U9nNxJdje4iOshsYTXpqFHeWT8M-] found
Submit result: U9nNxJdje4iOshsYTXpqFHeWT8M- has been confirmed, U9nNxJdje4iOshsYTXpqFHeWT8M- has been confirmed
Track | CTDB Status
1 | (832/835) Accurately ripped
2 | (834/835) Accurately ripped
3 | (834/835) Accurately ripped
4 | (834/835) Accurately ripped
5 | (834/835) Accurately ripped
6 | (833/835) Accurately ripped
7 | (834/835) Accurately ripped
8 | (833/835) Accurately ripped
9 | (833/835) Accurately ripped
10 | (833/835) Accurately ripped
11 | (833/835) Accurately ripped
12 | (832/835) Accurately ripped
13 | (833/835) Accurately ripped
14 | (833/835) Accurately ripped
15 | (831/835) Accurately ripped
16 | (828/835) Accurately ripped
17 | (832/835) Accurately ripped
18 | (826/835) Accurately ripped


==== Log checksum 48DCCE961DEEA49BB8ECB20C118AF395332EB01603A64090656BAD2907C35553 ====

foobar2000 1.2 / Dynamic Range Meter 1.1.1
log date: 2016-11-20 16:10:37

––––––––––––––––––––––––––––––––––––––––
Analyzed: Johnny Cash / At San Quentin (The Complete 1969 Concert)
––––––––––––––––––––––––––––––––––––––––

DR Peak RMS Duration Track
––––––––––––––––––––––––––––––––––––––––
DR11 0.00 dB -12.71 dB 1:56 01-Big River
DR12 0.00 dB -13.93 dB 1:52 02-I Still Miss Someone
DR10 0.00 dB -12.39 dB 2:05 03-Wreck Of The Old 97
DR12 0.00 dB -13.54 dB 3:29 04-I Walk The Line
DR11 0.00 dB -13.57 dB 3:21 05-Darlin' Companion
DR14 0.00 dB -17.70 dB 2:24 06-I Don't Know Where I'm Bound
DR14 0.00 dB -17.40 dB 6:15 07-Starkville City Jail
DR11 0.00 dB -14.17 dB 4:07 08-San Quentin
DR11 -0.35 dB -14.50 dB 3:13 09-San Quentin
DR11 0.00 dB -13.60 dB 3:24 10-Wanted Man
DR12 0.00 dB -14.59 dB 3:59 11-A Boy Named Sue
DR12 -1.29 dB -16.64 dB 2:30 12-(There'll Be) Peace In The Valley
DR12 0.00 dB -14.43 dB 4:24 13-Folsom Prison Blues
DR11 0.00 dB -13.71 dB 2:07 14-Ring Of Fire
DR13 0.00 dB -17.42 dB 4:01 15-He Turned The Water Into Wine
DR12 0.00 dB -14.24 dB 2:43 16-Daddy Sang Bass
DR11 0.00 dB -12.97 dB 2:16 17-The Old Account Was Settled Long Ago
DR11 0.00 dB -12.55 dB 5:08 18-Closing Medley; Folsom Prison Blues- I Walk The Line- Ring Of Fire- The Rebel-Johnny Yuma
––––––––––––––––––––––––––––––––––––––––

Number of tracks: 18
Official DR value: DR12

Samplerate: 44100 Hz
Channels: 2
Bits per sample: 16
Bitrate: 884 kbps
Codec: FLAC
================================================================================

Johnny Cash - At San Quentin (The Complete 1969 Concert) (1969) Expanded Reissue 2000

Johnny Cash - At San Quentin (The Complete 1969 Concert) (1969) Expanded Reissue 2000