Subcategories
Tags
Language
Tags

Jon Lord - Sarabande (1976) {1987, Reissue}

Posted By: popsakov
Jon Lord - Sarabande (1976) {1987, Reissue}

Jon Lord - Sarabande (1976) {1987, Reissue}
EAC Rip | FLAC (Img) + Cue + Log ~ 302 Mb | MP3 CBR320 ~ 170 Mb
Full Scans | 00:50:06 | RAR 5% Recovery
Progressive Rock / Classical / Jazz Fusion / Symphonic Rock
Line Records #LICD 9.00124 O

Sarabande is the second solo album by Jon Lord recorded in September 1975 near Düsseldorf (Germany). The orchestra was conducted by Eberhard Schoener. The complete Sarabande suite was premiered in live performance in Budapest on 18 September 2010 and later in Sofia on (30 October) and Essen (15 November). Lord amended the 1975 orchestrations, and also orchestrated Aria, which was played on piano and synthesizers on the recording, and Caprice which was simply a group performance on record. 'Finale' was made-over to allow the ‘parade of themes’ section -which was done with tape-loops on the recording- to be played live.

As Lord wrote in the liner notes, on this classical-rock fusion album, recorded in Deep Purple's dying days, "The theme behind the music on this album is that of a baroque dance suite; a form of music which was brought to its highest level by Bach. The title of each track is the name of a dance used in one of these dance suites, and I have tried to use the same tempo and feel as an original Sarabande, Gigue etc." The wholly instrumental work includes both some purely orchestral/symphonic passages and some fusiony rock chunks, as well as parts where the two forms merge to some extent. Among the rock section, Lord's keyboards are supported by ex-Spencer Davis Group drummer Pete York and a pre-Police Andy Summers on guitar. German composer and conductor Eberhard Schoener conducts the Philharmonica Hungarica Orchestra.

~ All Music

***************

Jon Lord - Sarabande (1976) {1987, Reissue}

Jon Lord - Sarabande (1976) {1987, Reissue}

Track List:

01. Fantasia [3:33]
02. Sarabande [7:25]
03. Aria [3:48]
04. Gigue [11:10]
05. Bouree [11:07]
06. Pavane [7:45]
07. Caprice [3:14]
08. Finale [2:04]

Personnel:
Jon Lord - Hammond organ, piano, clavinet synthesizers
Andy Summers - Guitar
Paul Karass - Bass
Pete York - Drums
Mark Nauseef - Percussion
The Philharmonia Hungarica directed by Eberhard Schoener

Exact Audio Copy V1.0 beta 3 from 29. August 2011

EAC extraction logfile from 6. September 2018, 20:40

Jon Lord / Sarabande

Used drive : PLEXTOR DVDR PX-740A Adapter: 0 ID: 0

Read mode : Secure
Utilize accurate stream : Yes
Defeat audio cache : Yes
Make use of C2 pointers : No

Read offset correction : 618
Overread into Lead-In and Lead-Out : No
Fill up missing offset samples with silence : Yes
Delete leading and trailing silent blocks : No
Null samples used in CRC calculations : Yes
Used interface : Native Win32 interface for Win NT & 2000

Used output format : Internal WAV Routines
Sample format : 44.100 Hz; 16 Bit; Stereo


TOC of the extracted CD

Track | Start | Length | Start sector | End sector
––––––––––––––––––––––––––––-
1 | 0:00.00 | 3:32.55 | 0 | 15954
2 | 3:32.55 | 7:25.20 | 15955 | 49349
3 | 10:58.00 | 3:48.00 | 49350 | 66449
4 | 14:46.00 | 11:10.00 | 66450 | 116699
5 | 25:56.00 | 11:07.00 | 116700 | 166724
6 | 37:03.00 | 7:45.00 | 166725 | 201599
7 | 44:48.00 | 3:13.50 | 201600 | 216124
8 | 48:01.50 | 2:04.25 | 216125 | 225449


Range status and errors

Selected range

Filename C:\MUSIC\CD Rips_J\Lord Sarabande\Jon Lord - Sarabande.wav

Peak level 93.2 %
Extraction speed 8.3 X
Range quality 100.0 %
Test CRC 2AE25664
Copy CRC 2AE25664
Copy OK

No errors occurred


AccurateRip summary

Track 1 accurately ripped (confidence 93) [D1C3878C] (AR v2)
Track 2 accurately ripped (confidence 95) [5DD7D6AE] (AR v2)
Track 3 accurately ripped (confidence 93) [85C6D38A] (AR v2)
Track 4 accurately ripped (confidence 94) [B29B58E2] (AR v2)
Track 5 accurately ripped (confidence 96) [E51B92A1] (AR v2)
Track 6 accurately ripped (confidence 95) [A6DDA053] (AR v2)
Track 7 accurately ripped (confidence 94) [A96070D8] (AR v2)
Track 8 accurately ripped (confidence 92) [9AF3765A] (AR v2)

All tracks accurately ripped

End of status report

==== Log checksum 675FE1EAB845C37890206AFFD1619489FE74E2BB1169D693703281F0882CA2FB ====

foobar2000 1.3.16 / Dynamic Range Meter 1.1.1
log date: 2018-09-11 00:00:15

––––––––––––––––––––––––––––––––––––––––
Analyzed: Jon Lord / Sarabande
––––––––––––––––––––––––––––––––––––––––

DR Peak RMS Duration Track
––––––––––––––––––––––––––––––––––––––––
DR12 -0.67 dB -18.13 dB 3:33 01-Fantasia
DR13 -1.48 dB -19.37 dB 7:25 02-Sarabande
DR15 -3.22 dB -23.93 dB 3:48 03-Aria
DR14 -2.54 dB -20.29 dB 11:10 04-Gigue
DR14 -0.60 dB -19.71 dB 11:07 05-Bouree
DR16 -5.22 dB -26.54 dB 7:45 06-Pavane
DR13 -3.31 dB -18.49 dB 3:14 07-Caprice
DR11 -1.78 dB -17.51 dB 2:04 08-Finale
––––––––––––––––––––––––––––––––––––––––

Number of tracks: 8
Official DR value: DR14

Samplerate: 44100 Hz
Channels: 2
Bits per sample: 16
Bitrate: 671 kbps
Codec: FLAC
================================================================================

[CUETools log; Date: 10.09.2018 23:59:21; Version: 2.1.6]
[CTDB TOCID: tq.RV7OtIyEm4fn4oSvbGCGEQLw-] found.
Track | CTDB Status
1 | (237/243) Accurately ripped
2 | (234/243) Accurately ripped
3 | (234/243) Accurately ripped
4 | (239/243) Accurately ripped
5 | (234/243) Accurately ripped
6 | (237/243) Accurately ripped
7 | (237/243) Accurately ripped
8 | (237/243) Accurately ripped
[AccurateRip ID: 00102633-006dd88d-710bbe08] found.
Track [ CRC | V2 ] Status
01 [240e74f1|d1c3878c] (082+093/177) Accurately ripped
02 [55e95cd3|5dd7d6ae] (080+095/177) Accurately ripped
03 [2988d9a6|85c6d38a] (079+093/174) Accurately ripped
04 [2d43ce72|b29b58e2] (079+094/175) Accurately ripped
05 [7e2febe8|e51b92a1] (079+096/177) Accurately ripped
06 [85f9da60|a6dda053] (079+095/176) Accurately ripped
07 [41595778|a96070d8] (080+094/176) Accurately ripped
08 [4805763d|9af3765a] (077+092/171) Accurately ripped
Offsetted by -877:
01 [70e171bb] (002/177) Accurately ripped
02 [3842aaa4] (002/177) Accurately ripped
03 [bffce058] (002/174) Accurately ripped
04 [0be3394e] (002/175) Accurately ripped
05 [f5bad8c4] (002/177) Accurately ripped
06 [59fb3ca6] (002/176) Accurately ripped
07 [d1d0484f] (002/176) Accurately ripped
08 [eafa96eb] (002/171) Accurately ripped

Track Peak [ CRC32 ] [W/O NULL] [ LOG ]
– 93,2 [2AE25664] [8BDDD129] CRC32
01 92,5 [01B3C12B] [B438B421]
02 84,3 [C554FF60] [27832306]
03 69,0 [9A36B42A] [EE86C31C]
04 74,6 [F4B4FCEB] [5D58B198]
05 93,2 [07C5526E] [7BAB14CF]
06 54,8 [AFED55D1] [B8394DDB]
07 68,2 [EA142760] [08B31A10]
08 81,4 [32076869] [7EA01496]

Jon Lord - Sarabande (1976) {1987, Reissue}


All thanks go to Juergen

>>> Jon Lord in my Blog <<<

DOWNLOAD: