Subcategories

Jon Lucien - Rashida (1973) Remastered Reissue 2011

Posted By: Designol
Jon Lucien - Rashida (1973) Remastered Reissue 2011

Jon Lucien - Rashida (1973) Remastered Reissue 2011
EAC | FLAC | Tracks (Cue&Log) ~ 329 Mb | Mp3 (CBR320) ~ 148 Mb | Scans included
Soul, Vocal Jazz, Vocal Pop | Label: Big Break | # CDBBR 0032 | 00:47:12

Like Lucien's first effort (1970's I Am Now), Rashida didn't set the world on fire commercially speaking, but it solidified Lucien's status as a purveyor of intelligent romantic ballads and poetic if not gushy lyrics. Even to fans of jazz/R&B/pop, Lucien is a love or hate proposition, and Rashida was the effort that all but etched his persona in stone. Produced by Shep Meyers and Larry Rosen, Rashida, displays Lucien's soothing baritone and romantic nature with much aplomb. As the arranger here, he also shows an immense capacity for melodies. Although this album has a few clunky but danceable tracks, at this point Lucien was much better at handling the ballads. "Kuenda," a mellow, wordless vocal, sets the stage for the album's ambience; "Would You Believe in Me" benefits from Lucien's relentless poesy and a strong idiosyncratic horn arrangement. To a listener, Lucien no doubt might seem like an odd bird, (having a track called "Satan" doesn't help), but often when the arrangements and Lucien's vocals are in sync, he is simply one of the most focused and emotional balladeers to even step in front of a microphone. The title track has Lucien playing the tortured romantic with a cinematic, emotion-filled arrangement. On "Lady Love," the finest of his early songs, he sings, "Darling let me lay beside you, kiss my burning lips about you, for I'm a child of God." There's no two ways about it, you either like this stuff or you don't. "Love Everlasting" takes a more lighthearted approach with its breezy arrangement and sentiment. For his fans, Rashida is one of Lucien's best-loved albums and would be essential listening to those who are so inclined.

Review by Jason Elias, Allmusic.com

Jon Lucien - Rashida (1973) Remastered Reissue 2011



Tracklist:

01. Kuenda (3:15)
02. Would You Believe In Me (2:27)
03. Lady Love (4:59)
04. Luella (3:52)
05. Shana (3:17)
06. Satan (3:38)
07. Rashida (6:09)
08. War Song (3:19)
09. Esperanza (4:08)
10. Love Everlasting (3:13)
11. Zenzile (5:39)
12. Lady Love (Single Version) (3:15)


Exact Audio Copy V1.0 beta 1 from 15. November 2010

EAC extraction logfile from 14. March 2011, 1:37

Jon Lucien / Rashida

Used drive : PHILIPS DVDR1628P1 Adapter: 4 ID: 0

Read mode : Secure
Utilize accurate stream : Yes
Defeat audio cache : Yes
Make use of C2 pointers : No

Read offset correction : 618
Overread into Lead-In and Lead-Out : No
Fill up missing offset samples with silence : Yes
Delete leading and trailing silent blocks : No
Null samples used in CRC calculations : Yes
Used interface : Native Win32 interface for Win NT & 2000
Gap handling : Appended to previous track

Used output format : User Defined Encoder
Selected bitrate : 256 kBit/s
Quality : High
Add ID3 tag : No
Command line compressor : C:\Program Files\FLAC\flac.exe
Additional command line options : -8 -V -T "ARTIST=%a" -T "TITLE=%t" -T "ALBUM=%g" -T "DATE=%y" -T "TRACKNUMBER=%n" -T "TOTALTRACKS=%x" -T "GENRE=%m" -T "ALBUMARTIST=%v" -T "ALBUM ARTIST=%v" -T "COMMENT=EAC Secure Mode, Test & Copy, AccurateRip, FLAC -8" %s


TOC of the extracted CD

Track | Start | Length | Start sector | End sector
––––––––––––––––––––––––––––-
1 | 0:00.00 | 3:15.00 | 0 | 14624
2 | 3:15.00 | 2:26.56 | 14625 | 25630
3 | 5:41.56 | 4:59.07 | 25631 | 48062
4 | 10:40.63 | 3:51.69 | 48063 | 65456
5 | 14:32.57 | 3:17.31 | 65457 | 80262
6 | 17:50.13 | 3:38.15 | 80263 | 96627
7 | 21:28.28 | 6:09.08 | 96628 | 124310
8 | 27:37.36 | 3:18.44 | 124311 | 139204
9 | 30:56.05 | 4:07.56 | 139205 | 157785
10 | 35:03.61 | 3:12.73 | 157786 | 172258
11 | 38:16.59 | 5:39.29 | 172259 | 197712
12 | 43:56.13 | 3:15.37 | 197713 | 212374


Track 1

Filename C:\addis gugsa killed my hdd\01 - Kuenda.wav

Pre-gap length 0:00:02.00

Peak level 96.9 %
Extraction speed 1.3 X
Track quality 100.0 %
Test CRC 4A04A80E
Copy CRC 4A04A80E
Track not present in AccurateRip database
Copy OK

Track 2

Filename C:\addis gugsa killed my hdd\02 - Would You Believe In Me.wav

Peak level 99.0 %
Extraction speed 1.3 X
Track quality 100.0 %
Test CRC 1ED01EE0
Copy CRC 1ED01EE0
Track not present in AccurateRip database
Copy OK

Track 3

Filename C:\addis gugsa killed my hdd\03 - Lady Love.wav

Peak level 98.5 %
Extraction speed 1.6 X
Track quality 100.0 %
Test CRC B6EF9AB3
Copy CRC B6EF9AB3
Track not present in AccurateRip database
Copy OK

Track 4

Filename C:\addis gugsa killed my hdd\04 - Luella.wav

Peak level 98.1 %
Extraction speed 1.6 X
Track quality 100.0 %
Test CRC 49BB7782
Copy CRC 49BB7782
Track not present in AccurateRip database
Copy OK

Track 5

Filename C:\addis gugsa killed my hdd\05 - Shana.wav

Peak level 87.3 %
Extraction speed 1.7 X
Track quality 100.0 %
Test CRC FF6253F2
Copy CRC FF6253F2
Track not present in AccurateRip database
Copy OK

Track 6

Filename C:\addis gugsa killed my hdd\06 - Satan.wav

Peak level 98.8 %
Extraction speed 1.8 X
Track quality 100.0 %
Test CRC 4EEBAE3C
Copy CRC 4EEBAE3C
Track not present in AccurateRip database
Copy OK

Track 7

Filename C:\addis gugsa killed my hdd\07 - Rashida.wav

Peak level 97.9 %
Extraction speed 2.1 X
Track quality 100.0 %
Test CRC CD558E45
Copy CRC CD558E45
Track not present in AccurateRip database
Copy OK

Track 8

Filename C:\addis gugsa killed my hdd\08 - War Song.wav

Peak level 98.7 %
Extraction speed 1.8 X
Track quality 99.9 %
Test CRC 04949564
Copy CRC 04949564
Track not present in AccurateRip database
Copy OK

Track 9

Filename C:\addis gugsa killed my hdd\09 - Esperanza.wav

Peak level 98.8 %
Extraction speed 2.2 X
Track quality 100.0 %
Test CRC 70594F23
Copy CRC 70594F23
Track not present in AccurateRip database
Copy OK

Track 10

Filename C:\addis gugsa killed my hdd\10 - Love Everlasting.wav

Peak level 99.6 %
Extraction speed 2.2 X
Track quality 100.0 %
Test CRC BE043CC7
Copy CRC BE043CC7
Track not present in AccurateRip database
Copy OK

Track 11

Filename C:\addis gugsa killed my hdd\11 - Zenzile.wav

Peak level 99.5 %
Extraction speed 2.2 X
Track quality 99.9 %
Test CRC 0D2C9CCE
Copy CRC 0D2C9CCE
Track not present in AccurateRip database
Copy OK

Track 12

Filename C:\addis gugsa killed my hdd\12 - Lady Love (Single Version).wav

Pre-gap length 0:00:00.74

Peak level 98.0 %
Extraction speed 2.4 X
Track quality 100.0 %
Test CRC D15F87CB
Copy CRC D15F87CB
Track not present in AccurateRip database
Copy OK


None of the tracks are present in the AccurateRip database

No errors occurred

End of status report

==== Log checksum 8B23E3AFFBC4952FF62119ADF7EC1B0D3E9A21BCF765661EF948EE1DE83ED258 ====

[CUETools log; Date: 03.01.2018 16:06:55; Version: 2.1.4]
[CTDB TOCID: BjHzqFDV1kqlDPMsjmiQpmCIt0w-] found.
Track | CTDB Status
1 | (3/3) Accurately ripped
2 | (3/3) Accurately ripped
3 | (3/3) Accurately ripped
4 | (3/3) Accurately ripped
5 | (3/3) Accurately ripped
6 | (3/3) Accurately ripped
7 | (3/3) Accurately ripped
8 | (3/3) Accurately ripped
9 | (3/3) Accurately ripped
10 | (3/3) Accurately ripped
11 | (3/3) Accurately ripped
12 | (3/3) Accurately ripped
[AccurateRip ID: 00145c2c-00c0d3c8-ad0b0f0c] found.
Track [ CRC | V2 ] Status
01 [90605259|be91a4b0] (0+1/1) Accurately ripped
02 [ee0586d8|e98e1be0] (0+1/1) Accurately ripped
03 [8ad38536|9afc3232] (0+1/1) Accurately ripped
04 [c9074474|3db93008] (0+1/1) Accurately ripped
05 [78104a50|491421b2] (0+1/1) Accurately ripped
06 [f96ccadf|28a241f5] (0+1/1) Accurately ripped
07 [fe6a2788|40f094e3] (0+1/1) Accurately ripped
08 [20f0b98a|7b362b32] (0+1/1) Accurately ripped
09 [d8972038|aa6ded67] (0+1/1) Accurately ripped
10 [0012e8e0|59d94e31] (0+1/1) Accurately ripped
11 [ce2008c2|7500eef5] (0+1/1) Accurately ripped
12 [09b549ed|1f2fa672] (0+1/1) Accurately ripped

Track Peak [ CRC32 ] [W/O NULL] [ LOG ]
– 99,6 [642AAEDC] [18404460]
01 96,9 [4A04A80E] [B7EF5D1B] CRC32
02 99,0 [1ED01EE0] [5378D048] CRC32
03 98,5 [B6EF9AB3] [F88B7060] CRC32
04 98,1 [49BB7782] [B3D8CC87] CRC32
05 87,3 [FF6253F2] [688CCFA0] CRC32
06 98,8 [4EEBAE3C] [4D186236] CRC32
07 97,9 [CD558E45] [1E6A96C4] CRC32
08 98,7 [04949564] [4A12C5F7] CRC32
09 98,8 [70594F23] [42F7304F] CRC32
10 99,6 [BE043CC7] [AE5FCD9B] CRC32
11 99,5 [0D2C9CCE] [8E16F982] CRC32
12 98,0 [D15F87CB] [A7C20273] CRC32

foobar2000 1.2 / Dynamic Range Meter 1.1.1
log date: 2018-01-03 16:18:35

––––––––––––––––––––––––––––––––––––––––
Analyzed: Jon Lucien / Rashida
––––––––––––––––––––––––––––––––––––––––

DR Peak RMS Duration Track
––––––––––––––––––––––––––––––––––––––––
DR11 -0.27 dB -14.18 dB 3:15 01-Kuenda
DR10 -0.08 dB -10.95 dB 2:27 02-Would You Believe In Me
DR9 -0.13 dB -11.31 dB 4:59 03-Lady Love
DR10 -0.17 dB -11.62 dB 3:52 04-Luella
DR10 -1.17 dB -14.17 dB 3:17 05-Shana
DR8 -0.10 dB -9.62 dB 3:38 06-Satan
DR10 -0.18 dB -12.68 dB 6:09 07-Rashida
DR10 -0.11 dB -10.67 dB 3:19 08-War Song
DR10 -0.10 dB -12.85 dB 4:08 09-Esperanza
DR9 -0.03 dB -10.91 dB 3:13 10-Love Everlasting
DR8 -0.04 dB -10.10 dB 5:39 11-Zenzile
DR6 -0.17 dB -8.39 dB 3:15 12-Lady Love (Single Version)
––––––––––––––––––––––––––––––––––––––––

Number of tracks: 12
Official DR value: DR9

Samplerate: 44100 Hz
Channels: 2
Bits per sample: 16
Bitrate: 838 kbps
Codec: FLAC
================================================================================

Jon Lucien - Rashida (1973) Remastered Reissue 2011

Jon Lucien - Rashida (1973) Remastered Reissue 2011