Subcategories

Jory Vinikour - Bach: Goldberg Variations, BWV 988 (2001)

Posted By: ArlegZ
Jory Vinikour - Bach: Goldberg Variations, BWV 988 (2001)

Jory Vinikour - Bach: Goldberg Variations, BWV988 (2001)
EAC | FLAC | Image (Cue & Log) ~ 491 Mb | Total time: 85:39 | Scans included
Classical | Label: Delos | DE3279 | Recorded: 2000

Vinikour and Delos’ beautiful new recording of this timeless classic features a performance of supreme elegance and an instrument built in 1998 by Kevin Fryer (inspired by the 1624 Ioannes Ruckers Colmar harpsichord) of unusual beauty and tone. The Goldberg Variations appeal on every possible level, transporting the listener to the incredible heights made possible by Bach’s masterful ingenuity.
Versatile harpsichordist Jory Vinikour has developed a strong reputation as a recitalist and concerto soloist and is increasingly known as an accompanist. Appearing Internationally in these capacities, Vinikour has performed with conductors including William Christie, Mark Minkowski, and Rene Jacobs.

Performer:
Jory Vinikour, harpsichord

Track List:
CD1:
Bach, J S: Goldberg Variations, BWV988
01. Aria
02. Variatio 1. a 1 Clav.
03. Variatio 2. a 1 Clav.
04. Variatio 3. Canone all'Unisuono a 1 Clav.
05. Variatio 4. a 1 Clav.
06. Variatio 5. a 1 o vero 2 Clav.
07. Variatio 6. Canone alla Seconda. a 1 Clav.
08. Variatio 7. a 1 o vero 2 Clav.
09. Variatio 8. a 2 Clav.
10. Variatio 9. Canzone alla Terza. a 1 Clav.
11. Variatio 10. Fughetta. a 1 Clav.
12. Variatio 11. a Clav.
13. Variatio 12. Canone alla Quarta. a 1 Clav.
14. Variatio 13. a 2 Clav.
15. Variatio 14. a 2 Clav.
16. Variatio 15. Canone alla Quinta. a 1 Clav.
CD2:
01. Variatio 16. Ouverture. a 1 Clav.
02. Variatio 17. a 2 Clav.
03. Variatio 18. Canone alla Sexta. a 1 Clav.
04. Variatio 19. a 1 Clav.
05. Variatio 20. a 2 Clav.
06. Variatio 21. Canone alla Settima. a 1 Clav.
07. Variatio 22. a 1 Clav.
08. Variatio 23. a 2 Clav.
09. Variatio 24. Canone all´ Ottava. a 1 Clav.
10. Variatio 25. a 2 Clav.
11. Variatio 26. a 2 Clav.
12. Variatio 27. Canone alla Nona. a 2 Clav.
13. Variatio 28. a 2 Clav.
14. Variatio 29. a 1 o vero 2 Clav.
15. Variatio 30. Quodlibet. a 1 Clav.
16. Aria da capo


Exact Audio Copy V1.3 from 2. September 2016

EAC extraction logfile from 16. February 2020, 5:49

Bach, Johann Sebastian / Goldberg Variations - Vinikour (Disc 1)

Used drive : ASUS BW-16D1X-U Adapter: 1 ID: 1

Read mode : Secure
Utilize accurate stream : Yes
Defeat audio cache : Yes
Make use of C2 pointers : No

Read offset correction : 667
Overread into Lead-In and Lead-Out : No
Fill up missing offset samples with silence : Yes
Delete leading and trailing silent blocks : No
Null samples used in CRC calculations : Yes
Used interface : Native Win32 interface for Win NT & 2000

Used output format : User Defined Encoder
Selected bitrate : 1024 kBit/s
Quality : High
Add ID3 tag : No
Command line compressor : C:\Program Files (x86)\Exact Audio Copy\FLAC\FLAC.EXE
Additional command line options : -6 -V -T "ARTIST=%artist%" -T "TITLE=%title%" -T "ALBUM=%albumtitle%" -T "DATE=%year%" -T "TRACKNUMBER=%tracknr%" -T "GENRE=%genre%" -T "COMMENT=%comment%" -T "BAND=%albuminterpret%" -T "ALBUMARTIST=%albuminterpret%" -T "COMPOSER=%composer%" %haslyrics%–tag-from-file=LYRICS="%lyricsfile%"%haslyrics% -T "DISCNUMBER=%cdnumber%" -T "TOTALDISCS=%totalcds%" -T "TOTALTRACKS=%numtracks%" %hascover%–picture="%coverfile%"%hascover% %source% -o %dest%


TOC of the extracted CD

Track | Start | Length | Start sector | End sector
––––––––––––––––––––––––––––-
1 | 0:00.00 | 4:50.37 | 0 | 21786
2 | 4:50.37 | 2:00.40 | 21787 | 30826
3 | 6:51.02 | 1:34.58 | 30827 | 37934
4 | 8:25.60 | 1:56.50 | 37935 | 46684
5 | 10:22.35 | 1:08.07 | 46685 | 51791
6 | 11:30.42 | 1:36.28 | 51792 | 59019
7 | 13:06.70 | 1:23.67 | 59020 | 65311
8 | 14:30.62 | 1:36.48 | 65312 | 72559
9 | 16:07.35 | 2:08.20 | 72560 | 82179
10 | 18:15.55 | 2:10.65 | 82180 | 91994
11 | 20:26.45 | 1:40.25 | 91995 | 99519
12 | 22:06.70 | 2:00.70 | 99520 | 108589
13 | 24:07.65 | 2:36.52 | 108590 | 120341
14 | 26:44.42 | 4:44.35 | 120342 | 141676
15 | 31:29.02 | 2:14.63 | 141677 | 151789
16 | 33:43.65 | 6:09.47 | 151790 | 179511


Range status and errors

Selected range

Filename D:\A-upload\Bach - Goldberg Variations_Jory Vinikour\CD-1\Bach, Johann Sebastian - Goldberg Variations - Vinikour (Disc 1).wav

Peak level 28.1 %
Extraction speed 7.0 X
Range quality 100.0 %
Test CRC FE5ECD06
Copy CRC FE5ECD06
Copy OK

No errors occurred


AccurateRip summary

Track 1 accurately ripped (confidence 11) [F0A43FF8] (AR v2)
Track 2 accurately ripped (confidence 11) [9DA69FA2] (AR v2)
Track 3 accurately ripped (confidence 11) [B830664A] (AR v2)
Track 4 accurately ripped (confidence 11) [AE19354B] (AR v2)
Track 5 accurately ripped (confidence 11) [BC7D0B1D] (AR v2)
Track 6 accurately ripped (confidence 11) [1BDDAA92] (AR v2)
Track 7 accurately ripped (confidence 11) [B3F35C7E] (AR v2)
Track 8 accurately ripped (confidence 11) [5221B652] (AR v2)
Track 9 accurately ripped (confidence 11) [DF80BC6A] (AR v2)
Track 10 accurately ripped (confidence 11) [24292D36] (AR v2)
Track 11 accurately ripped (confidence 11) [46AADB44] (AR v2)
Track 12 accurately ripped (confidence 11) [B2CCF889] (AR v2)
Track 13 accurately ripped (confidence 11) [E34DBEA2] (AR v2)
Track 14 accurately ripped (confidence 10) [6E836542] (AR v2)
Track 15 accurately ripped (confidence 10) [B78B3DA2] (AR v2)
Track 16 accurately ripped (confidence 10) [6773F8B3] (AR v2)

All tracks accurately ripped

End of status report

–– CUETools DB Plugin V2.1.6

[CTDB TOCID: G.yXq5jionOB3u8A9ZTomUZxEc8-] found
Submit result: G.yXq5jionOB3u8A9ZTomUZxEc8- has been confirmed
Track | CTDB Status
1 | (9/9) Accurately ripped
2 | (9/9) Accurately ripped
3 | (9/9) Accurately ripped
4 | (9/9) Accurately ripped
5 | (9/9) Accurately ripped
6 | (9/9) Accurately ripped
7 | (9/9) Accurately ripped
8 | (9/9) Accurately ripped
9 | (9/9) Accurately ripped
10 | (9/9) Accurately ripped
11 | (9/9) Accurately ripped
12 | (9/9) Accurately ripped
13 | (9/9) Accurately ripped
14 | (9/9) Accurately ripped
15 | (9/9) Accurately ripped
16 | (9/9) Accurately ripped


==== Log checksum CF7B4FD49E5204946C6C5177746902766E4240F403857C44EA1766FDE672FAB4 ====


Exact Audio Copy V1.3 from 2. September 2016

EAC extraction logfile from 16. February 2020, 6:13

Jory Vinikour / Bach - Goldberg Variations - Vinikour (Disc 2)

Used drive : ASUS BW-16D1X-U Adapter: 1 ID: 1

Read mode : Secure
Utilize accurate stream : Yes
Defeat audio cache : Yes
Make use of C2 pointers : No

Read offset correction : 667
Overread into Lead-In and Lead-Out : No
Fill up missing offset samples with silence : Yes
Delete leading and trailing silent blocks : No
Null samples used in CRC calculations : Yes
Used interface : Native Win32 interface for Win NT & 2000

Used output format : User Defined Encoder
Selected bitrate : 1024 kBit/s
Quality : High
Add ID3 tag : No
Command line compressor : C:\Program Files (x86)\Exact Audio Copy\FLAC\FLAC.EXE
Additional command line options : -6 -V -T "ARTIST=%artist%" -T "TITLE=%title%" -T "ALBUM=%albumtitle%" -T "DATE=%year%" -T "TRACKNUMBER=%tracknr%" -T "GENRE=%genre%" -T "COMMENT=%comment%" -T "BAND=%albuminterpret%" -T "ALBUMARTIST=%albuminterpret%" -T "COMPOSER=%composer%" %haslyrics%–tag-from-file=LYRICS="%lyricsfile%"%haslyrics% -T "DISCNUMBER=%cdnumber%" -T "TOTALDISCS=%totalcds%" -T "TOTALTRACKS=%numtracks%" %hascover%–picture="%coverfile%"%hascover% %source% -o %dest%


TOC of the extracted CD

Track | Start | Length | Start sector | End sector
––––––––––––––––––––––––––––-
1 | 0:00.00 | 3:13.55 | 0 | 14529
2 | 3:13.55 | 2:04.12 | 14530 | 23841
3 | 5:17.67 | 1:26.63 | 23842 | 30354
4 | 6:44.55 | 1:17.52 | 30355 | 36181
5 | 8:02.32 | 2:14.28 | 36182 | 46259
6 | 10:16.60 | 3:24.12 | 46260 | 61571
7 | 13:40.72 | 1:14.73 | 61572 | 67194
8 | 14:55.70 | 2:19.17 | 67195 | 77636
9 | 17:15.12 | 2:44.60 | 77637 | 89996
10 | 19:59.72 | 10:16.08 | 89997 | 136204
11 | 30:16.05 | 2:09.35 | 136205 | 145914
12 | 32:25.40 | 1:51.40 | 145915 | 154279
13 | 34:17.05 | 2:19.72 | 154280 | 164776
14 | 36:37.02 | 2:11.55 | 164777 | 174656
15 | 38:48.57 | 1:50.05 | 174657 | 182911
16 | 40:38.62 | 5:03.33 | 182912 | 205669


Range status and errors

Selected range

Filename D:\A-upload\Bach - Goldberg Variations_Jory Vinikour\CD-2\Bach - Goldberg Variations - Vinikour (Disc 2).wav

Peak level 29.9 %
Extraction speed 7.3 X
Range quality 100.0 %
Test CRC 3A5A884E
Copy CRC 3A5A884E
Copy OK

No errors occurred


AccurateRip summary

Track 1 accurately ripped (confidence 11) [9E2C79D7] (AR v2)
Track 2 accurately ripped (confidence 11) [22216565] (AR v2)
Track 3 accurately ripped (confidence 11) [D92B4244] (AR v2)
Track 4 accurately ripped (confidence 11) [E1D474ED] (AR v2)
Track 5 accurately ripped (confidence 11) [26725434] (AR v2)
Track 6 accurately ripped (confidence 11) [FECF07AA] (AR v2)
Track 7 accurately ripped (confidence 11) [E4873EEC] (AR v2)
Track 8 accurately ripped (confidence 11) [1CA8838A] (AR v2)
Track 9 accurately ripped (confidence 11) [2A0D86B2] (AR v2)
Track 10 accurately ripped (confidence 11) [D6E8CCB1] (AR v2)
Track 11 accurately ripped (confidence 11) [E54B4999] (AR v2)
Track 12 accurately ripped (confidence 11) [3846EB6C] (AR v2)
Track 13 accurately ripped (confidence 11) [52A937F0] (AR v2)
Track 14 accurately ripped (confidence 11) [1AC229B4] (AR v2)
Track 15 accurately ripped (confidence 11) [C62ECA81] (AR v2)
Track 16 accurately ripped (confidence 11) [0EC42548] (AR v2)

All tracks accurately ripped

End of status report

–– CUETools DB Plugin V2.1.6

[CTDB TOCID: ce..wnZ29iBOw8fHtXDedHnzXPY-] found
Submit result: ce..wnZ29iBOw8fHtXDedHnzXPY- has been confirmed
Track | CTDB Status
1 | (10/10) Accurately ripped
2 | (10/10) Accurately ripped
3 | (10/10) Accurately ripped
4 | (10/10) Accurately ripped
5 | (10/10) Accurately ripped
6 | (10/10) Accurately ripped
7 | (10/10) Accurately ripped
8 | (10/10) Accurately ripped
9 | (10/10) Accurately ripped
10 | (10/10) Accurately ripped
11 | (10/10) Accurately ripped
12 | (10/10) Accurately ripped
13 | (10/10) Accurately ripped
14 | (10/10) Accurately ripped
15 | (10/10) Accurately ripped
16 | (10/10) Accurately ripped


==== Log checksum 3F56AE3EE1E7C61F5AA47363A5A5545AED356131B72F5B30E37477D2041699AE ====

Jory Vinikour - Bach: Goldberg Variations, BWV 988 (2001)

Thanks to the original releaser