Subcategories

Josep Pons, Orquesta Ciudad de Granada, Vivica Genaux, Juan Diego Florez - Donizetti: Alahor in Granata (1999)

Posted By: ArlegZ
Josep Pons, Orquesta Ciudad de Granada, Vivica Genaux, Juan Diego Florez - Donizetti: Alahor in Granata (1999)

Josep Pons, Orquesta Ciudad de Granada, Vivica Genaux, Juan Diego Flórez - Donizetti: Alahor in Granata (1999)
EAC | FLAC | Image (Cue & Log) ~ 732 Mb | Total time: 88:34+73:56 | Scans included
Classical | Label: Almaviva | # DS-0125 | Recorded: 1999

A year after the two hundredth anniversary of Gaetano Donizetti's birth (1797) and 150 years after his death (1848), the Teatro de la Maestranza de Sevilla chose to open its 1998-9 operatic season with four per­formances of Alahor in Granata, an almost for­gotten opera by the composer. This is an event al a huge historical importance since it marks the first time that the opera has been performed in the XXth century. Alahor in Granata was first performed in the Teatro Carolino in Palermo on the 7th of January 1826 but, alt­hough the opera was again staged in the same city in 1830, it later passed into oblivion and has never been performed ever since. Up until now, as was the case with many of Donizetti's works, a hundred and seventy two years after its pre­miére, we had very little news about this beauti­full masterpiece's original fate. Perhaps the fact that the music score was never published at the time of its creation, and the fact that Donizetti was to use some of its musical passages in some of his later works, lead us to assume that during his life, the composer gave little or no impor­tance to this operas youthful score.
Thanks to the initiative of the Centro de Documentación Musical de Andalucía (Andalusian Centre for Musical Research), which produced this recording of the opera within the collection titled "Documentos Sonoros del Patrimonio Musical de Andalucía, Donizetti's fans from all over the world will have the opportunity to enjoy this truly historical event.

Performer:
Alahor - Simone Alaimo
Zobeida - Patrizia Pace
Muley Hassem - Vivica Genaux
Alamar - Juan Diego Flórez
Sulima - Soraya Chaves
Ismaele - Ruben Amoretti
Orquesta 'Ciudad de Granada'
Conductor - Josep Pons

Track List:
CD1:
01 Obertura
02 Atto I. Introduzione: Granata e questa (Alahor)
03 Aria: Ombra del padre mio (Alahor)
04 Recitativo: Smania crudele (Alamar)
05 Aria: Taci ancor.. (Alamar)
06 Coro: Dove l'antico onore… (Alamar e Coro di Zergi)
07 Recitativo: Hassem cadra.. (Alamar e Ismaele)
08 Recitativo: Dolce pensier (Zobeida)
09 Cavatina: Ah! Ti sento mio povero cor.. (Zobeida e Coro)
10 Marcia e Coro: Senti, s'avanza (Zobeida e Coro)
11 Recitativo e Aria con Coro: Popolo amici (Hassem, Coro di Zegri e Zobeida)
12 Recitativo e Duetto: E di natura istinto (Hassem, Alamar)
13 Recitativo: Felice appien sarei.. (Zobeida e Sulima)
14 Duetto: De' mi splendori antichi (Alahor e Zobeida)
CD2:
01 Coro: No,che piu vaga (Coro de Abenceraghi)
02 Concertato: De' mortali il piu beato (Hassem, Alamar, Alahor, Zobeida, Sulima e Coro)
03 Atto II. Introduzione: Ed Alamar non veggo (Ismaele e Alamar)
04 Coro: Ah, no, non piangere (Coro di schiave con Sulima e Zobeida)
05 Recitativo: Eh che! tu piangi? (Hassem e Zobeida)
06 Duetto: Ah! Per te che tanto adoro.. (Hassem e Zobeida)
07 Recitativo: Ismaele co'suoi non giunge ancora.. (Alamar, Ismaele e Alahor)
08 Recitativo e Aria con Coro: Fidi compagni.. (Alamar e Coro)
09 Recitativo e Coro: Sire, deh, vieni affrettati.. (Coro, Hassem e Ismaele)
10 Recitativo: Qui dee passare in breve.. (Alamar, Alahor e Hassem)
11 Duetto: A te d'innante.. (Hassem e Alahor)
12 Recitativo con Coro: Zobeida il mira.. (Hassem, Zobeida, Alahor Ismaele e Coro)
13 Rondo: Confusa e l'alma mia.. (Zobeida, Coro e Tutti)


Exact Audio Copy V1.3 from 2. September 2016

EAC extraction logfile from 8. February 2018, 0:33

Josep Pons, Orquesta Ciudad de Granada / Donizetti - Alahor in Granata CD1

Used drive : HL-DT-STDVDRAM GH24NS95 Adapter: 1 ID: 0

Read mode : Secure
Utilize accurate stream : Yes
Defeat audio cache : Yes
Make use of C2 pointers : No

Read offset correction : 6
Overread into Lead-In and Lead-Out : No
Fill up missing offset samples with silence : Yes
Delete leading and trailing silent blocks : No
Null samples used in CRC calculations : Yes
Used interface : Native Win32 interface for Win NT & 2000

Used output format : User Defined Encoder
Selected bitrate : 128 kBit/s
Quality : High
Add ID3 tag : No
Command line compressor : C:\Program Files\Exact Audio Copy\Flac\flac.exe
Additional command line options : -V -8 -T "Date=%year%" -T "Genre=%genre%" %source%


TOC of the extracted CD

Track | Start | Length | Start sector | End sector
––––––––––––––––––––––––––––-
1 | 0:00.00 | 7:01.00 | 0 | 31574
2 | 7:01.00 | 3:31.32 | 31575 | 47431
3 | 10:32.32 | 5:08.48 | 47432 | 70579
4 | 15:41.05 | 2:49.60 | 70580 | 83314
5 | 18:30.65 | 7:21.65 | 83315 | 116454
6 | 25:52.55 | 3:38.15 | 116455 | 132819
7 | 29:30.70 | 2:02.20 | 132820 | 141989
8 | 31:33.15 | 1:55.67 | 141990 | 150681
9 | 33:29.07 | 6:28.10 | 150682 | 179791
10 | 39:57.17 | 2:56.58 | 179792 | 193049
11 | 42:54.00 | 7:17.12 | 193050 | 225836
12 | 50:11.12 | 13:39.50 | 225837 | 287311
13 | 63:50.62 | 4:13.28 | 287312 | 306314
14 | 68:04.15 | 10:30.60 | 306315 | 353624


Range status and errors

Selected range

Filename C:\Program Files\Exact Audio Copy\Flac\Donizetti - Alahor in Granata CD1.wav

Suspicious position 1:18:20

Peak level 94.8 %
Extraction speed 8.4 X
Range quality 100.0 %
Test CRC ACA08C64
Copy CRC ACA08C64
Copy finished

There were errors

End of status report

==== Log checksum A4B3647FE5A09C67E09290B96EC393BC977CE77B028A6BFB7C46E669473D18F4 ====


Exact Audio Copy V1.3 from 2. September 2016

EAC extraction logfile from 8. February 2018, 1:11

Josep Pons, Orquesta Ciudad de Granada / Donizetti - Alahor in Granata CD2

Used drive : HL-DT-STDVDRAM GH24NS95 Adapter: 1 ID: 0

Read mode : Secure
Utilize accurate stream : Yes
Defeat audio cache : Yes
Make use of C2 pointers : No

Read offset correction : 6
Overread into Lead-In and Lead-Out : No
Fill up missing offset samples with silence : Yes
Delete leading and trailing silent blocks : No
Null samples used in CRC calculations : Yes
Used interface : Native Win32 interface for Win NT & 2000

Used output format : User Defined Encoder
Selected bitrate : 128 kBit/s
Quality : High
Add ID3 tag : No
Command line compressor : C:\Program Files\Exact Audio Copy\Flac\flac.exe
Additional command line options : -V -8 -T "Date=%year%" -T "Genre=%genre%" %source%


TOC of the extracted CD

Track | Start | Length | Start sector | End sector
––––––––––––––––––––––––––––-
1 | 0:00.00 | 2:28.20 | 0 | 11119
2 | 2:28.20 | 10:28.65 | 11120 | 58284
3 | 12:57.10 | 1:55.12 | 58285 | 66921
4 | 14:52.22 | 3:26.53 | 66922 | 82424
5 | 18:19.00 | 2:19.12 | 82425 | 92861
6 | 20:38.12 | 11:52.13 | 92862 | 146274
7 | 32:30.25 | 3:10.35 | 146275 | 160559
8 | 35:40.60 | 6:40.52 | 160560 | 190611
9 | 42:21.37 | 3:19.05 | 190612 | 205541
10 | 45:40.42 | 3:51.18 | 205542 | 222884
11 | 49:31.60 | 10:42.32 | 222885 | 271066
12 | 60:14.17 | 5:25.05 | 271067 | 295446
13 | 65:39.22 | 8:14.53 | 295447 | 332549


Range status and errors

Selected range

Filename C:\Program Files\Exact Audio Copy\Flac\Donizetti - Alahor in Granata CD2.wav

Peak level 96.6 %
Extraction speed 7.8 X
Range quality 100.0 %
Test CRC 588F713B
Copy CRC 588F713B
Copy OK

No errors occurred

End of status report

==== Log checksum C88F6181E397B4464846EE22A5792B09F14C15FD8A58CA2F88B78AE0A8384FC0 ====

Josep Pons, Orquesta Ciudad de Granada, Vivica Genaux, Juan Diego Florez - Donizetti: Alahor in Granata (1999)