Subcategories

Josiah Woodson - Suite Elemental (2017)

Posted By: Pisulik
Josiah Woodson - Suite Elemental (2017)

Josiah Woodson - Suite Elemental (2017)
EAC Rip | FLAC (Tracks) +cue, log, m3u, scans - 368 MB | 00:45:20
Jazz, Fusion, Contemporary Jazz | Label: Truth Revolution Recording Collective

On his debut album titled 'Suite Elemental,' multi-instrumentalist Josiah Woodson weaves an epic story of a prince on a journey to become a king. Over the course of six tracks, Woodson creates a sound sculpture (suite) inspired by the elements Air, Water, Fire, and Earth and universal themes that revolve around inheritance, ascendance, struggle, adversity, and eventual triumph.

TRACKLIST

01. Air
02. Eau
03. Feu
04. Terre
05. Solstice
06. [rep]Rise

Personnel:

Josiah Woodson: composition, trumpet, flugelhorn, guitar, flute
Ricardo Izquierdo: tenor sax (3)
Daniel Gassin: piano (2-6)
Zacharie Abraham: upright bass (1-3, 5, 6)
Laurent-Emmanuel “Tilo” Bertholo: drums

Special Guests
Lovell Bradford: Rhodes (1)
Peter Giron: upright bass (4)
Ralph Lavital: guitar (5)
Philippe Makaia: Gwo Ka (5)

Exact Audio Copy V1.0 beta 3 from 29. August 2011

EAC extraction logfile from 29. December 2017, 23:16

Josiah Woodson / Suite Elemental

Used drive : ATAPI iHAS124 E Adapter: 0 ID: 0

Read mode : Secure
Utilize accurate stream : Yes
Defeat audio cache : Yes
Make use of C2 pointers : No

Read offset correction : 6
Overread into Lead-In and Lead-Out : No
Fill up missing offset samples with silence : Yes
Delete leading and trailing silent blocks : No
Null samples used in CRC calculations : Yes
Used interface : Native Win32 interface for Win NT & 2000
Gap handling : Appended to previous track

Used output format : Internal WAV Routines
Sample format : 44.100 Hz; 16 Bit; Stereo


TOC of the extracted CD

Track | Start | Length | Start sector | End sector
––––––––––––––––––––––––––––-
1 | 0:00.00 | 7:56.21 | 0 | 35720
2 | 7:56.21 | 8:36.49 | 35721 | 74469
3 | 16:32.70 | 9:18.00 | 74470 | 116319
4 | 25:50.70 | 9:08.29 | 116320 | 157448
5 | 34:59.24 | 8:51.02 | 157449 | 197275
6 | 43:50.26 | 1:30.08 | 197276 | 204033


Track 1

Filename C:\_EAC\01. Air.wav

Pre-gap length 0:00:02.00

Peak level 98.8 %
Extraction speed 1.2 X
Track quality 100.0 %
Test CRC 361375B6
Copy CRC 361375B6
Track not present in AccurateRip database
Copy OK

Track 2

Filename C:\_EAC\02. Eau.wav

Pre-gap length 0:00:02.00

Peak level 98.8 %
Extraction speed 1.5 X
Track quality 100.0 %
Test CRC 0E39CD90
Copy CRC 0E39CD90
Track not present in AccurateRip database
Copy OK

Track 3

Filename C:\_EAC\03. Feu.wav

Pre-gap length 0:00:02.00

Peak level 98.8 %
Extraction speed 1.7 X
Track quality 100.0 %
Test CRC 78301B98
Copy CRC 78301B98
Track not present in AccurateRip database
Copy OK

Track 4

Filename C:\_EAC\04. Terre.wav

Pre-gap length 0:00:02.00

Peak level 98.8 %
Extraction speed 1.9 X
Track quality 100.0 %
Test CRC 2FBE401F
Copy CRC 2FBE401F
Track not present in AccurateRip database
Copy OK

Track 5

Filename C:\_EAC\05. Solstice.wav

Pre-gap length 0:00:02.00

Peak level 98.8 %
Extraction speed 2.1 X
Track quality 100.0 %
Test CRC A97588DE
Copy CRC A97588DE
Track not present in AccurateRip database
Copy OK

Track 6

Filename C:\_EAC\06. [rep]Rise.wav

Pre-gap length 0:00:02.00

Peak level 98.8 %
Extraction speed 1.6 X
Track quality 100.0 %
Test CRC 2EBA57D1
Copy CRC 2EBA57D1
Track not present in AccurateRip database
Copy OK


None of the tracks are present in the AccurateRip database

No errors occurred

End of status report

==== Log checksum 20A3AF848926AB21373212129A2215C1BBC1E5C614532BA7E9750DCC773B1ED1 ====


All thanks go to the original releaser