Subcategories

Joss Stone - The Best Of Joss Stone 2003-2009 (2011)

Posted By: Designol
Joss Stone - The Best Of Joss Stone 2003-2009 (2011)

Joss Stone - The Best Of Joss Stone 2003-2009 (2011)
EAC | FLAC | Tracks (Cue&Log) ~ 346 Mb | Mp3 (CBR320) ~ 124 Mb | Covers included | 00:51:27
Soul, Rhythm & Blues, Blues-Rock, Pop/Rock | Label: EMI/Virgin | # 509990 71046 26

Before she’s truly freed from the shackles of EMI, Joss Stone must endure one final indignity: that standard end-of-contract ploy, a greatest-hits album, covering her six years with the label. Every one of her 12 singles for the label is here, with the Jamie Hartman duet “Stalemate” – originally released on Ben’s Brother’s 2009 album – added as a concluding track. If this doesn’t dig deep, it nevertheless hits all the highlights – her White Stripes cover “Fell in Love with a Boy,” her Top Ten U.K. hit “You Had Me,” “Don’t Cha Wanna Ride,” her only charting U.S. single “Tell Me 'Bout It,” the Common duet “Tell Me What We’re Gonna Do Now” – drawing a picture of the decade when Stone was always on the cusp of stardom yet never quite truly there. As introductions go, it’s a solid one, capturing her potential and promise, alternating between singles frustrating and fun.

Review by Stephen Thomas Erlewine, Allmusic.com

Joss Stone - The Best Of Joss Stone 2003-2009 (2011)



Tracklist:

01. Fell In Love With A Boy (3:40)
02. Super Duper Love (4:20)
03. You Had Me (4:01)
04. Right To Be Wrong (4:41)
05. Don't Cha Wanna Ride (3:33)
06. Spoiled (4:04)
07. Tell Me 'Bout It (2:51)
08. Baby Baby Baby (4:36)
09. Tell Me What We're Gonna Do Now (feat. Common) (4:25)
10. Bruised But Not Broken (4:17)
11. L-O-V-E (2:49)
12. Free Me (3:54)
13. Stalemate (feat. Jamie Hartman) (4:17)


Exact Audio Copy V1.0 beta 1 from 15. November 2010

EAC extraction logfile from 29. December 2012, 21:22

Joss Stone / The Best Of Joss Stone 2003-2009

Used drive : ASUS DRW-22B2S Adapter: 0 ID: 0

Read mode : Secure
Utilize accurate stream : Yes
Defeat audio cache : Yes
Make use of C2 pointers : No

Read offset correction : 6
Overread into Lead-In and Lead-Out : No
Fill up missing offset samples with silence : Yes
Delete leading and trailing silent blocks : No
Null samples used in CRC calculations : Yes
Used interface : Installed external ASPI interface
Gap handling : Appended to previous track

Used output format : Internal WAV Routines
Sample format : 44.100 Hz; 16 Bit; Stereo


TOC of the extracted CD

Track | Start | Length | Start sector | End sector
––––––––––––––––––––––––––––-
1 | 0:00.00 | 3:39.38 | 0 | 16462
2 | 3:39.38 | 4:20.05 | 16463 | 35967
3 | 7:59.43 | 4:00.45 | 35968 | 54012
4 | 12:00.13 | 4:41.14 | 54013 | 75101
5 | 16:41.27 | 3:33.00 | 75102 | 91076
6 | 20:14.27 | 4:03.48 | 91077 | 109349
7 | 24:18.00 | 2:51.12 | 109350 | 122186
8 | 27:09.12 | 4:36.02 | 122187 | 142888
9 | 31:45.14 | 4:24.41 | 142889 | 162729
10 | 36:09.55 | 4:16.73 | 162730 | 182002
11 | 40:26.53 | 2:48.73 | 182003 | 194675
12 | 43:15.51 | 3:53.46 | 194676 | 212196
13 | 47:09.22 | 4:17.21 | 212197 | 231492


Track 1

Filename D:\Joss Stone - The Best Of Joss Stone 2003-2009 2011 (FLAC)\01 - Fell In Love With A Boy.wav

Pre-gap length 0:00:02.00

Peak level 97.7 %
Extraction speed 2.3 X
Track quality 99.9 %
Test CRC 3DED5436
Copy CRC 3DED5436
Accurately ripped (confidence 2) [FDC55D5C]
Copy OK

Track 2

Filename D:\Joss Stone - The Best Of Joss Stone 2003-2009 2011 (FLAC)\02 - Super Duper Love.wav

Pre-gap length 0:00:01.85

Peak level 97.7 %
Extraction speed 2.8 X
Track quality 100.0 %
Test CRC 39893B71
Copy CRC 39893B71
Accurately ripped (confidence 2) [56BCDD1A]
Copy OK

Track 3

Filename D:\Joss Stone - The Best Of Joss Stone 2003-2009 2011 (FLAC)\03 - You Had Me.wav

Pre-gap length 0:00:00.90

Peak level 97.6 %
Extraction speed 2.7 X
Track quality 100.0 %
Test CRC 0694EA79
Copy CRC 0694EA79
Accurately ripped (confidence 2) [D1A2D6AA]
Copy OK

Track 4

Filename D:\Joss Stone - The Best Of Joss Stone 2003-2009 2011 (FLAC)\04 - Right To Be Wrong.wav

Pre-gap length 0:00:01.69

Peak level 97.7 %
Extraction speed 2.8 X
Track quality 100.0 %
Test CRC 6755482D
Copy CRC 6755482D
Accurately ripped (confidence 2) [ACED8349]
Copy OK

Track 5

Filename D:\Joss Stone - The Best Of Joss Stone 2003-2009 2011 (FLAC)\05 - Don't Cha Wanna Ride.wav

Pre-gap length 0:00:01.56

Peak level 97.7 %
Extraction speed 2.7 X
Track quality 100.0 %
Test CRC 28942EFB
Copy CRC 28942EFB
Accurately ripped (confidence 2) [54E727F1]
Copy OK

Track 6

Filename D:\Joss Stone - The Best Of Joss Stone 2003-2009 2011 (FLAC)\06 - Spoiled.wav

Pre-gap length 0:00:01.58

Peak level 97.6 %
Extraction speed 2.8 X
Track quality 100.0 %
Test CRC 86A03653
Copy CRC 86A03653
Accurately ripped (confidence 2) [3A9BA64D]
Copy OK

Track 7

Filename D:\Joss Stone - The Best Of Joss Stone 2003-2009 2011 (FLAC)\07 - Tell Me 'Bout It.wav

Pre-gap length 0:00:01.18

Peak level 90.8 %
Extraction speed 2.6 X
Track quality 100.0 %
Test CRC 8BED49B4
Copy CRC 8BED49B4
Accurately ripped (confidence 2) [3397CCE3]
Copy OK

Track 8

Filename D:\Joss Stone - The Best Of Joss Stone 2003-2009 2011 (FLAC)\08 - Baby Baby Baby.wav

Pre-gap length 0:00:01.96

Peak level 91.0 %
Extraction speed 2.8 X
Track quality 100.0 %
Test CRC 4A90AEE3
Copy CRC 4A90AEE3
Accurately ripped (confidence 2) [D625A74F]
Copy OK

Track 9

Filename D:\Joss Stone - The Best Of Joss Stone 2003-2009 2011 (FLAC)\09 - Tell Me What We're Gonna Do Now (feat. Common).wav

Pre-gap length 0:00:01.50

Peak level 85.3 %
Extraction speed 2.8 X
Track quality 100.0 %
Test CRC 8F179078
Copy CRC 8F179078
Accurately ripped (confidence 2) [AB97413A]
Copy OK

Track 10

Filename D:\Joss Stone - The Best Of Joss Stone 2003-2009 2011 (FLAC)\10 - Bruised But Not Broken.wav

Pre-gap length 0:00:01.84

Peak level 97.7 %
Extraction speed 2.8 X
Track quality 100.0 %
Test CRC E37F4DD8
Copy CRC E37F4DD8
Accurately ripped (confidence 4) [43548B02]
Copy OK

Track 11

Filename D:\Joss Stone - The Best Of Joss Stone 2003-2009 2011 (FLAC)\11 - L-O-V-E.wav

Pre-gap length 0:00:01.64

Peak level 88.8 %
Extraction speed 2.6 X
Track quality 100.0 %
Test CRC 27261F28
Copy CRC 27261F28
Accurately ripped (confidence 2) [A35BBF5B]
Copy OK

Track 12

Filename D:\Joss Stone - The Best Of Joss Stone 2003-2009 2011 (FLAC)\12 - Free Me.wav

Pre-gap length 0:00:01.29

Peak level 97.6 %
Extraction speed 2.8 X
Track quality 100.0 %
Test CRC AAECF4A5
Copy CRC AAECF4A5
Accurately ripped (confidence 2) [8BEFB9D0]
Copy OK

Track 13

Filename D:\Joss Stone - The Best Of Joss Stone 2003-2009 2011 (FLAC)\13 - Stalemate (feat. Jamie Hartman).wav

Pre-gap length 0:00:01.00

Peak level 97.6 %
Extraction speed 2.7 X
Track quality 100.0 %
Test CRC 45BB5B8F
Copy CRC 45BB5B8F
Accurately ripped (confidence 2) [E733BEA6]
Copy OK


All tracks accurately ripped

No errors occurred

End of status report

==== Log checksum 8816D6D59891277BD837C7DA5928472669F0CA753818BE3C39AA13EA737BF2AB ====

[CUETools log; Date: 12.02.2018 19:15:19; Version: 2.1.4]
[CTDB TOCID: FQ7KMRZylUBQqvuOlu_xBuvqMsE-] found.
Track | CTDB Status
1 | (156/156) Accurately ripped
2 | (155/156) Accurately ripped
3 | (156/156) Accurately ripped
4 | (154/156) Accurately ripped
5 | (156/156) Accurately ripped
6 | (155/156) Accurately ripped
7 | (156/156) Accurately ripped
8 | (156/156) Accurately ripped
9 | (156/156) Accurately ripped
10 | (156/156) Accurately ripped
11 | (155/156) Accurately ripped
12 | (155/156) Accurately ripped
13 | (156/156) Accurately ripped
[AccurateRip ID: 0018dfc4-00f84d46-940c0e0d] found.
Track [ CRC | V2 ] Status
01 [fdc55d5c|d7880dc5] (006+057/104) Accurately ripped
02 [56bcdd1a|8b21de8f] (006+058/105) Accurately ripped
03 [d1a2d6aa|cf9a8138] (005+059/105) Accurately ripped
04 [aced8349|fdc91832] (005+059/105) Accurately ripped
05 [54e727f1|212e6b37] (005+059/105) Accurately ripped
06 [3a9ba64d|3fdafc01] (005+058/104) Accurately ripped
07 [3397cce3|47bacc88] (005+059/105) Accurately ripped
08 [d625a74f|e48f0e26] (005+058/104) Accurately ripped
09 [ab97413a|1d74279e] (005+059/104) Accurately ripped
10 [43548b02|885160d2] (005+057/102) Accurately ripped
11 [a35bbf5b|f1788307] (005+059/103) Accurately ripped
12 [8befb9d0|38b2bc59] (005+057/102) Accurately ripped
13 [e733bea6|7a149e14] (005+057/102) Accurately ripped
Offsetted by 6:
01 [5305ec88] (002/104) Accurately ripped
02 [432aceee] (002/105) Accurately ripped
03 [22b430da] (002/105) Accurately ripped
04 [b22c55d2] (002/105) Accurately ripped
05 [f4f4f38b] (002/105) Accurately ripped
06 [b118b65b] (002/104) Accurately ripped
07 [c5823c76] (002/105) Accurately ripped
08 [e4110389] (002/104) Accurately ripped
09 [4ecee13b] (002/104) Accurately ripped
10 [f41ea7c1] (002/102) Accurately ripped
11 [61eafc6e] (002/103) Accurately ripped
12 [d4ae5ade] (002/102) Accurately ripped
13 [bf000b96] (002/102) Accurately ripped
Offsetted by -6:
01 [07b9c755] (000/104) No match (V2 was not tested)
02 [6982ea2b] (000/105) No match (V2 was not tested)
03 [6134639b] (000/105) No match (V2 was not tested)
04 [f08e79ee] (000/105) No match (V2 was not tested)
05 [abd0aeab] (000/105) No match (V2 was not tested)
06 [80ccb0a9] (000/104) No match (V2 was not tested)
07 [ee9cb744] (000/105) No match (V2 was not tested)
08 [8e814b18] (000/104) No match (V2 was not tested)
09 [1c9d7ed5] (000/104) No match (V2 was not tested)
10 [e9e6b754] (000/102) No match (V2 was not tested)
11 [30f7368e] (000/103) No match (V2 was not tested)
12 [44697fe3] (000/102) No match (V2 was not tested)
13 [0d6332a0] (000/102) No match (V2 was not tested)

Track Peak [ CRC32 ] [W/O NULL] [ LOG ]
– 97,7 [9C3A4933] [64581265]
01 97,7 [3DED5436] [448053FD] CRC32
02 97,7 [39893B71] [C0E64E8A] CRC32
03 97,6 [0694EA79] [433BD5B7] CRC32
04 97,7 [6755482D] [881DF3C1] CRC32
05 97,7 [28942EFB] [1726CD6B] CRC32
06 97,6 [86A03653] [9673D995] CRC32
07 90,8 [8BED49B4] [F95DCB1E] CRC32
08 91,0 [4A90AEE3] [D3091B77] CRC32
09 85,3 [8F179078] [9C8F9543] CRC32
10 97,7 [E37F4DD8] [E4315055] CRC32
11 88,8 [27261F28] [6DB2A153] CRC32
12 97,6 [AAECF4A5] [31FEC217] CRC32
13 97,6 [45BB5B8F] [18B9AA41] CRC32

foobar2000 1.2 / Dynamic Range Meter 1.1.1
log date: 2018-02-12 19:05:28

––––––––––––––––––––––––––––––––––––––––
Analyzed: Joss Stone / The Best Of Joss Stone 2003-2009
––––––––––––––––––––––––––––––––––––––––

DR Peak RMS Duration Track
––––––––––––––––––––––––––––––––––––––––
DR7 -0.20 dB -9.11 dB 3:40 01-Fell In Love With A Boy
DR7 -0.20 dB -8.60 dB 4:20 02-Super Duper Love
DR7 -0.20 dB -8.53 dB 4:01 03-You Had Me
DR6 -0.20 dB -9.06 dB 4:41 04-Right To Be Wrong
DR7 -0.20 dB -8.30 dB 3:33 05-Don't Cha Wanna Ride
DR6 -0.20 dB -8.75 dB 4:04 06-Spoiled
DR6 -0.83 dB -7.65 dB 2:51 07-Tell Me 'Bout It
DR8 -0.82 dB -10.03 dB 4:36 08-Baby Baby Baby
DR6 -1.37 dB -8.72 dB 4:25 09-Tell Me What We're Gonna Do Now (feat. Common)
DR8 -0.20 dB -10.47 dB 4:17 10-Bruised But Not Broken
DR8 -1.03 dB -10.65 dB 2:49 11-L-O-V-E
DR7 -0.21 dB -9.06 dB 3:54 12-Free Me
DR5 -0.21 dB -7.68 dB 4:17 13-Stalemate (feat. Jamie Hartman)
––––––––––––––––––––––––––––––––––––––––

Number of tracks: 13
Official DR value: DR7

Samplerate: 44100 Hz
Channels: 2
Bits per sample: 16
Bitrate: 920 kbps
Codec: FLAC
================================================================================

Joss Stone - The Best Of Joss Stone 2003-2009 (2011)

Joss Stone - The Best Of Joss Stone 2003-2009 (2011)