Subcategories

Joy of Cooking - The Complete Joy of Cooking (2006) 2CD

Posted By: Designol
Joy of Cooking - The Complete Joy of Cooking (2006) 2CD

Joy of Cooking - The Complete Joy of Cooking (2006) 2CD
EAC | FLAC | Tracks (Cue&Log) ~ 717 Mb | MP3 (CBR320) ~ 282 Mb | Artwork included | 02:00:38
Folk Rock, Soft Rock, Folk-Jazz, Blues-Rock, Psychedelic Rock | Label: Acadia | # ACA 8118

Two CD compilation featuring the complete Capital Records recordings from this Bay Area band. Recorded between 1970-72, this set includes their three albums Joy Of Cooking, Closer To The Ground and Castles.

Joy Of Cooking were formed in Berkeley (San Francisco Bay Area) during the hippie era (1967). Their fusion sound, incorporating folk, rock, jazz, gospel and blues, had little in common with acid-rock: it heralded a new era of "creativity" and of stylistic re-evalutation.

One of the first bands led by female musicians, and one of the earliest to deal with feminist issues within popular music, the Joy Of Cooking were led by pianist Toni Brown (who had graduated in creative writing) and guitarist Terry Garthwaite (a folk-singer and an aspiring sociologist). The three-unit rhythm section, on the other hand, was entirely male. Hampered by the fact of not being the typical rock band, the Joy Of Cooking gathered a lot of critical attention but never enjoyed any commercial success. In fact, they were formed in 1967 but had to wait four years before recording an album (they were all over 30 by then). Their albums Joy Of Cooking (Capitol, jan 1971), that includes Brownsville-Mockingbird, Red Wine At Noon and Did You Go Downtown, Closer to the Ground (aug 1971), highlighted by the anthemic title-track, New Colorado Blues, Humpty-Dumpty, Pilot and The War You Left, and Castles (may 1972), with another string of soulful gems (Home Town Man, Beginning Tomorrow, Three Day Loser, Bad Luck Blues, Don't The Moon Look fat and Lonesome) displayed a sophisticated sense of melody and flexible song structures. The instrumental score crafted laid-back atmospheres that Brown's fragile contralto and Terry Garthwaite's gospel passion turned into cohesive statements of real life.

The album Same Old Song And Dance (1973) was never released (Such Days Are Made For Walkin', Ain't Nobody Got the Blues Like Me and You Gotta Reap Just What You Sow would surface on American Originals) and the band quickly dissolved, but Toni Brown and Terry Garthwaite released albums both as a duo and as individual artists. Despite Brown's increasing interest in country music, the two albums on which they collaborated are as good as the first Joy Of Cooking album: Cross-Country (Capitol, 1973), with As I Watch the Wind and Midnight Blues.

Toni Brown released two solo albums: Good For You Too (MCA, 1974) and Angel Of Love (Fantasy, 1980).
Toni Brown and Terry Garthwaite also released a duo album, Joy (Fantasy, 1977).

Terry Garthwaite's career was more consistent. Her first three albums, released over a ten-year period, continued to offer Joy Of Cooking's folk-jazz-blues fusion: Terry (Arista, 1975), Hand In Glove (Fantasy, 1979), Moving Day (Catero, 1984). She then converted to spiritual new-age music with Affirhythms (Joy, 1992) and Sacred Circles (Joy, 2000).
American Originals (Capitol, 1992) is an excellent career anthology.

Biography by Piero Scaruffi

Joy of Cooking - The Complete Joy of Cooking (2006) 2CD




Tracklist:

CD1:

Joy of Cooking (1970):

01. Hush (02:46)
02. Too Late, But Not Forgotten (04:21)
03. Down my Dream (04:17)
04. If Some God (Sometimes You Gotta' Go Home) (03:43)
05. Did You Go Downtown? (07:39)
06. Dancing Couple (00:53)
07. Brownsville/Mockingbird (medley) (05:51)
08. Red Wine at Noon (03:34)
09. Only Time Will Tell Me (05:13)
10. Children's House (06:50)

Closer to the Ground (1971):

11. Closer to the Ground (04:44)
12. Blues for a Friend (03:38)
13. New Colorado Blues (03:28)
14. Humpty Dumpty (02:35)
15. A Thousand Miles (03:55)

CD2:

01. Sometimes Like a River (Loving You) (03:27)
02. Pilot (03:40)
03. The War You Left (02:41)
04. First Time, Last Time (02:50)
05. Laugh, Don't Laugh (05:34)

Castles (1972):

06. Don't the Moon Look Fat & Lonesome (04:07)
07. Waiting for the Last Plane (04:04)
08. Lady Called Love (03:26)
09. Three-Day Loser (04:04)
10. Castles (03:49)
11. Beginning of Tomorrow (04:36)
12. Let Love Carry You Along (02:44)
13. Home Town Man (03:47)
14. All Around the Sun & the Moon (04:40)
15. Bad Luck Blues (03:30)


Exact Audio Copy V1.0 beta 2 from 29. April 2011

EAC extraction logfile from 16. April 2012, 16:06

Joy of Cooking / The Complete Joy of Cooking (Disc 1)

Used drive : hp DVD A DH16ABLH Adapter: 0 ID: 0

Read mode : Secure
Utilize accurate stream : Yes
Defeat audio cache : Yes
Make use of C2 pointers : No

Read offset correction : 6
Overread into Lead-In and Lead-Out : No
Fill up missing offset samples with silence : Yes
Delete leading and trailing silent blocks : No
Null samples used in CRC calculations : Yes
Used interface : Native Win32 interface for Win NT & 2000
Gap handling : Appended to previous track

Used output format : User Defined Encoder
Selected bitrate : 1024 kBit/s
Quality : High
Add ID3 tag : No
Command line compressor : C:\Program Files (x86)\Exact Audio Copy\Flac\flac.exe
Additional command line options : -8 -V -T "ARTIST=%artist%" -T "TITLE=%title%" -T "ALBUM=%albumtitle%" -T "DATE=%year%" -T "TRACKNUMBER=%tracknr%" -T "GENRE=%genre%" -T "COMMENT=%comment%" -T "COMPOSER=%composer%" %haslyrics%–tag-from-file=LYRICS="%lyrics


TOC of the extracted CD

Track | Start | Length | Start sector | End sector
––––––––––––––––––––––––––––-
1 | 0:00.00 | 2:46.24 | 0 | 12473
2 | 2:46.24 | 4:21.65 | 12474 | 32113
3 | 7:08.14 | 4:17.12 | 32114 | 51400
4 | 11:25.26 | 3:43.50 | 51401 | 68175
5 | 15:09.01 | 7:39.28 | 68176 | 102628
6 | 22:48.29 | 0:53.37 | 102629 | 106640
7 | 23:41.66 | 5:51.34 | 106641 | 132999
8 | 29:33.25 | 3:34.47 | 133000 | 149096
9 | 33:07.72 | 5:13.34 | 149097 | 172605
10 | 38:21.31 | 6:50.00 | 172606 | 203355
11 | 45:11.31 | 4:44.61 | 203356 | 224716
12 | 49:56.17 | 3:38.41 | 224717 | 241107
13 | 53:34.58 | 3:28.21 | 241108 | 256728
14 | 57:03.04 | 2:35.00 | 256729 | 268353
15 | 59:38.04 | 3:55.72 | 268354 | 286050


Track 1

Filename C:\Share1\Joy of Cooking\2006 - The Complete Joy of Cooking (Disc 1)\01. Hush.wav

Pre-gap length 0:00:02.00

Peak level 98.8 %
Extraction speed 2.7 X
Track quality 99.9 %
Test CRC 913802D4
Copy CRC 913802D4
Accurately ripped (confidence 1) [017AD9C8] (AR v1)
Copy OK

Track 2

Filename C:\Share1\Joy of Cooking\2006 - The Complete Joy of Cooking (Disc 1)\02. Too Late, But Not Forgotten.wav

Peak level 98.8 %
Extraction speed 4.2 X
Track quality 100.0 %
Test CRC B40C64AD
Copy CRC B40C64AD
Accurately ripped (confidence 1) [44C46547] (AR v1)
Copy OK

Track 3

Filename C:\Share1\Joy of Cooking\2006 - The Complete Joy of Cooking (Disc 1)\03. Down my Dream.wav

Peak level 98.8 %
Extraction speed 4.5 X
Track quality 100.0 %
Test CRC 30CA798C
Copy CRC 30CA798C
Accurately ripped (confidence 1) [A6163CC0] (AR v1)
Copy OK

Track 4

Filename C:\Share1\Joy of Cooking\2006 - The Complete Joy of Cooking (Disc 1)\04. If Some God (Sometimes You Gotta' Go Home).wav

Peak level 98.8 %
Extraction speed 4.7 X
Track quality 100.0 %
Test CRC 73683D61
Copy CRC 73683D61
Accurately ripped (confidence 1) [00899697] (AR v1)
Copy OK

Track 5

Filename C:\Share1\Joy of Cooking\2006 - The Complete Joy of Cooking (Disc 1)\05. Did You Go Downtown.wav

Peak level 98.8 %
Extraction speed 5.5 X
Track quality 100.0 %
Test CRC 6FFA945C
Copy CRC 6FFA945C
Accurately ripped (confidence 1) [1BFAC271] (AR v1)
Copy OK

Track 6

Filename C:\Share1\Joy of Cooking\2006 - The Complete Joy of Cooking (Disc 1)\06. Dancing Couple.wav

Peak level 98.8 %
Extraction speed 3.5 X
Track quality 100.0 %
Test CRC 5DF9AC8F
Copy CRC 5DF9AC8F
Accurately ripped (confidence 1) [9D224EAE] (AR v1)
Copy OK

Track 7

Filename C:\Share1\Joy of Cooking\2006 - The Complete Joy of Cooking (Disc 1)\07. Brownsville-Mockingbird (medley).wav

Peak level 98.8 %
Extraction speed 5.8 X
Track quality 100.0 %
Test CRC E203E399
Copy CRC E203E399
Accurately ripped (confidence 1) [60DE0FCB] (AR v1)
Copy OK

Track 8

Filename C:\Share1\Joy of Cooking\2006 - The Complete Joy of Cooking (Disc 1)\08. Red Wine at Noon.wav

Peak level 98.8 %
Extraction speed 5.7 X
Track quality 100.0 %
Test CRC 62CB4A93
Copy CRC 62CB4A93
Accurately ripped (confidence 1) [89274408] (AR v1)
Copy OK

Track 9

Filename C:\Share1\Joy of Cooking\2006 - The Complete Joy of Cooking (Disc 1)\09. Only Time Will Tell Me.wav

Peak level 98.8 %
Extraction speed 6.2 X
Track quality 100.0 %
Test CRC 3ABEE662
Copy CRC 3ABEE662
Accurately ripped (confidence 1) [265F18E9] (AR v1)
Copy OK

Track 10

Filename C:\Share1\Joy of Cooking\2006 - The Complete Joy of Cooking (Disc 1)\10. Children's House.wav

Peak level 98.8 %
Extraction speed 5.9 X
Track quality 99.9 %
Test CRC BC2CC8E3
Copy CRC BC2CC8E3
Accurately ripped (confidence 1) [BC8FBC47] (AR v1)
Copy OK

Track 11

Filename C:\Share1\Joy of Cooking\2006 - The Complete Joy of Cooking (Disc 1)\11. Closer to the Ground.wav

Peak level 98.8 %
Extraction speed 6.8 X
Track quality 100.0 %
Test CRC 1DE9E751
Copy CRC 1DE9E751
Accurately ripped (confidence 1) [30E19A28] (AR v1)
Copy OK

Track 12

Filename C:\Share1\Joy of Cooking\2006 - The Complete Joy of Cooking (Disc 1)\12. Blues for a Friend.wav

Peak level 100.0 %
Extraction speed 6.8 X
Track quality 100.0 %
Test CRC 6CF3E218
Copy CRC 6CF3E218
Accurately ripped (confidence 1) [7AC01C1A] (AR v1)
Copy OK

Track 13

Filename C:\Share1\Joy of Cooking\2006 - The Complete Joy of Cooking (Disc 1)\13. New Colorado Blues.wav

Peak level 98.8 %
Extraction speed 6.8 X
Track quality 100.0 %
Test CRC D2098C96
Copy CRC D2098C96
Accurately ripped (confidence 1) [46E364DC] (AR v1)
Copy OK

Track 14

Filename C:\Share1\Joy of Cooking\2006 - The Complete Joy of Cooking (Disc 1)\14. Humpty Dumpty.wav

Peak level 98.8 %
Extraction speed 4.9 X
Track quality 99.9 %
Test CRC D46949CE
Copy CRC D46949CE
Accurately ripped (confidence 1) [35CC3F95] (AR v1)
Copy OK

Track 15

Filename C:\Share1\Joy of Cooking\2006 - The Complete Joy of Cooking (Disc 1)\15. A Thousand Miles.wav

Peak level 98.8 %
Extraction speed 7.2 X
Track quality 100.0 %
Test CRC 8C515A94
Copy CRC 8C515A94
Accurately ripped (confidence 1) [01047F40] (AR v1)
Copy OK


All tracks accurately ripped

No errors occurred

End of status report

==== Log checksum 450195447AD47A53AE06155C7597D2E58D6C96877EF7D7AD3AB07EEEF801E742 ====

[CUETools log; Date: 18.10.2017 21:25:00; Version: 2.1.4]
[CTDB TOCID: h6Cyy5S9nld3Hxz87_T5kHbiUbs-] found.
Track | CTDB Status
1 | (2/2) Accurately ripped
2 | (2/2) Accurately ripped
3 | (2/2) Accurately ripped
4 | (2/2) Accurately ripped
5 | (2/2) Accurately ripped
6 | (2/2) Accurately ripped
7 | (2/2) Accurately ripped
8 | (2/2) Accurately ripped
9 | (2/2) Accurately ripped
10 | (2/2) Accurately ripped
11 | (2/2) Accurately ripped
12 | (2/2) Accurately ripped
13 | (2/2) Accurately ripped
14 | (2/2) Accurately ripped
15 | (2/2) Accurately ripped
[AccurateRip ID: 00233965-01933b71-d70ee60f] found.
Track [ CRC | V2 ] Status
01 [017ad9c8|90bc3e0d] (1+1/3) Accurately ripped
02 [44c46547|a2c3938d] (1+1/3) Accurately ripped
03 [a6163cc0|9d44252a] (1+1/3) Accurately ripped
04 [00899697|97b8d691] (1+1/3) Accurately ripped
05 [1bfac271|23ba5882] (1+1/3) Accurately ripped
06 [9d224eae|3878605c] (1+1/3) Accurately ripped
07 [60de0fcb|1e243044] (1+1/3) Accurately ripped
08 [89274408|c0fd4916] (1+1/3) Accurately ripped
09 [265f18e9|8f871527] (1+1/3) Accurately ripped
10 [bc8fbc47|fcb19e32] (1+1/3) Accurately ripped
11 [30e19a28|0a220742] (1+1/3) Accurately ripped
12 [7ac01c1a|1c9fef51] (1+1/3) Accurately ripped
13 [46e364dc|fe0c0534] (1+1/3) Accurately ripped
14 [35cc3f95|11afa278] (1+1/3) Accurately ripped
15 [01047f40|eb6e0383] (1+1/3) Accurately ripped

Track Peak [ CRC32 ] [W/O NULL] [ LOG ]
– 100,0 [360565BE] [96B30CFC]
01 98,8 [913802D4] [74C105BE] CRC32
02 98,8 [B40C64AD] [469A3605] CRC32
03 98,8 [30CA798C] [2868D41D] CRC32
04 98,8 [73683D61] [DA0091D6] CRC32
05 98,8 [6FFA945C] [09D28F7D] CRC32
06 98,8 [5DF9AC8F] [6802C2F6] CRC32
07 98,8 [E203E399] [801D5690] CRC32
08 98,8 [62CB4A93] [8CAD3944] CRC32
09 98,8 [3ABEE662] [DAEAEBA7] CRC32
10 98,8 [BC2CC8E3] [F2A70852] CRC32
11 98,8 [1DE9E751] [8264BEB8] CRC32
12 100,0 [6CF3E218] [4C39E819] CRC32
13 98,8 [D2098C96] [977DB2F6] CRC32
14 98,8 [D46949CE] [F4291397] CRC32
15 98,8 [8C515A94] [DC455960] CRC32

foobar2000 1.2 / Dynamic Range Meter 1.1.1
log date: 2017-10-18 21:25:48

––––––––––––––––––––––––––––––––––––––––
Analyzed: Joy of Cooking / The Complete Joy of Cooking (Disc 1)
––––––––––––––––––––––––––––––––––––––––

DR Peak RMS Duration Track
––––––––––––––––––––––––––––––––––––––––
DR12 -0.10 dB -13.32 dB 2:46 01-Hush
DR13 -0.10 dB -15.22 dB 4:22 02-Too Late, But Not Forgotten
DR12 -0.10 dB -14.17 dB 4:17 03-Down my Dream
DR12 -0.10 dB -14.51 dB 3:44 04-If Some God (Sometimes You Gotta' Go Home)
DR12 -0.10 dB -13.54 dB 7:39 05-Did You Go Downtown?
DR13 -0.10 dB -15.43 dB 0:53 06-Dancing Couple
DR12 -0.10 dB -13.89 dB 5:51 07-Brownsville/Mockingbird (medley)
DR11 -0.10 dB -13.91 dB 3:35 08-Red Wine at Noon
DR13 -0.10 dB -14.47 dB 5:13 09-Only Time Will Tell Me
DR12 -0.10 dB -14.20 dB 6:50 10-Children's House
DR10 -0.10 dB -12.31 dB 4:45 11-Closer to the Ground
DR12 0.00 dB -14.47 dB 3:39 12-Blues for a Friend
DR10 -0.10 dB -12.56 dB 3:28 13-New Colorado Blues
DR10 -0.10 dB -11.32 dB 2:35 14-Humpty Dumpty
DR10 -0.10 dB -12.64 dB 3:56 15-A Thousand Miles
––––––––––––––––––––––––––––––––––––––––

Number of tracks: 15
Official DR value: DR12

Samplerate: 44100 Hz
Channels: 2
Bits per sample: 16
Bitrate: 805 kbps
Codec: FLAC
================================================================================


Exact Audio Copy V1.0 beta 2 from 29. April 2011

EAC extraction logfile from 16. April 2012, 16:47

Joy of Cooking / The Complete Joy of Cooking (Disc 2)

Used drive : hp DVD A DH16ABLH Adapter: 0 ID: 0

Read mode : Secure
Utilize accurate stream : Yes
Defeat audio cache : Yes
Make use of C2 pointers : No

Read offset correction : 6
Overread into Lead-In and Lead-Out : No
Fill up missing offset samples with silence : Yes
Delete leading and trailing silent blocks : No
Null samples used in CRC calculations : Yes
Used interface : Native Win32 interface for Win NT & 2000
Gap handling : Appended to previous track

Used output format : User Defined Encoder
Selected bitrate : 1024 kBit/s
Quality : High
Add ID3 tag : No
Command line compressor : C:\Program Files (x86)\Exact Audio Copy\Flac\flac.exe
Additional command line options : -8 -V -T "ARTIST=%artist%" -T "TITLE=%title%" -T "ALBUM=%albumtitle%" -T "DATE=%year%" -T "TRACKNUMBER=%tracknr%" -T "GENRE=%genre%" -T "COMMENT=%comment%" -T "COMPOSER=%composer%" %haslyrics%–tag-from-file=LYRICS="%lyrics


TOC of the extracted CD

Track | Start | Length | Start sector | End sector
––––––––––––––––––––––––––––-
1 | 0:00.00 | 3:27.47 | 0 | 15571
2 | 3:27.47 | 3:40.00 | 15572 | 32071
3 | 7:07.47 | 2:41.00 | 32072 | 44146
4 | 9:48.47 | 2:50.69 | 44147 | 56965
5 | 12:39.41 | 5:34.49 | 56966 | 82064
6 | 18:14.15 | 4:07.64 | 82065 | 100653
7 | 22:22.04 | 4:04.61 | 100654 | 119014
8 | 26:26.65 | 3:26.44 | 119015 | 134508
9 | 29:53.34 | 4:04.14 | 134509 | 152822
10 | 33:57.48 | 3:49.05 | 152823 | 170002
11 | 37:46.53 | 4:36.45 | 170003 | 190747
12 | 42:23.23 | 2:44.25 | 190748 | 203072
13 | 45:07.48 | 3:47.10 | 203073 | 220107
14 | 48:54.58 | 4:40.00 | 220108 | 241107
15 | 53:34.58 | 3:30.09 | 241108 | 256866


Track 1

Filename C:\Share1\Joy of Cooking\2006 - The Complete Joy of Cooking (Disc 2)\01. Sometimes Like a River (Loving You).wav

Pre-gap length 0:00:02.00

Peak level 98.8 %
Extraction speed 3.7 X
Track quality 100.0 %
Test CRC F1032B4A
Copy CRC F1032B4A
Track not present in AccurateRip database
Copy OK

Track 2

Filename C:\Share1\Joy of Cooking\2006 - The Complete Joy of Cooking (Disc 2)\02. Pilot.wav

Peak level 86.4 %
Extraction speed 4.1 X
Track quality 100.0 %
Test CRC 2064B319
Copy CRC 2064B319
Track not present in AccurateRip database
Copy OK

Track 3

Filename C:\Share1\Joy of Cooking\2006 - The Complete Joy of Cooking (Disc 2)\03. The War You Left.wav

Peak level 100.0 %
Extraction speed 3.1 X
Track quality 99.9 %
Test CRC EF3B9C84
Copy CRC EF3B9C84
Track not present in AccurateRip database
Copy OK

Track 4

Filename C:\Share1\Joy of Cooking\2006 - The Complete Joy of Cooking (Disc 2)\04. First Time, Last Time.wav

Peak level 98.8 %
Extraction speed 4.4 X
Track quality 100.0 %
Test CRC 5C7F8D7C
Copy CRC 5C7F8D7C
Track not present in AccurateRip database
Copy OK

Track 5

Filename C:\Share1\Joy of Cooking\2006 - The Complete Joy of Cooking (Disc 2)\05. Laugh, Don't Laugh.wav

Peak level 100.0 %
Extraction speed 4.3 X
Track quality 99.9 %
Test CRC 9398B631
Copy CRC 9398B631
Track not present in AccurateRip database
Copy OK

Track 6

Filename C:\Share1\Joy of Cooking\2006 - The Complete Joy of Cooking (Disc 2)\06. Don't the Moon Look Fat & Lonesome.wav

Peak level 99.8 %
Extraction speed 5.2 X
Track quality 100.0 %
Test CRC 0C106004
Copy CRC 0C106004
Track not present in AccurateRip database
Copy OK

Track 7

Filename C:\Share1\Joy of Cooking\2006 - The Complete Joy of Cooking (Disc 2)\07. Waiting for the Last Plane.wav

Peak level 100.0 %
Extraction speed 5.5 X
Track quality 100.0 %
Test CRC A12A4B60
Copy CRC A12A4B60
Track not present in AccurateRip database
Copy OK

Track 8

Filename C:\Share1\Joy of Cooking\2006 - The Complete Joy of Cooking (Disc 2)\08. Lady Called Love.wav

Peak level 98.8 %
Extraction speed 5.5 X
Track quality 100.0 %
Test CRC 2FB7270B
Copy CRC 2FB7270B
Track not present in AccurateRip database
Copy OK

Track 9

Filename C:\Share1\Joy of Cooking\2006 - The Complete Joy of Cooking (Disc 2)\09. Three-Day Loser.wav

Peak level 98.8 %
Extraction speed 6.0 X
Track quality 100.0 %
Test CRC 6901DB87
Copy CRC 6901DB87
Track not present in AccurateRip database
Copy OK

Track 10

Filename C:\Share1\Joy of Cooking\2006 - The Complete Joy of Cooking (Disc 2)\10. Castles.wav

Peak level 98.8 %
Extraction speed 4.8 X
Track quality 99.9 %
Test CRC F6590A8B
Copy CRC F6590A8B
Track not present in AccurateRip database
Copy OK

Track 11

Filename C:\Share1\Joy of Cooking\2006 - The Complete Joy of Cooking (Disc 2)\11. Beginning of Tomorrow.wav

Peak level 100.0 %
Extraction speed 6.5 X
Track quality 100.0 %
Test CRC ADF69870
Copy CRC ADF69870
Track not present in AccurateRip database
Copy OK

Track 12

Filename C:\Share1\Joy of Cooking\2006 - The Complete Joy of Cooking (Disc 2)\12. Let Love Carry You Along.wav

Peak level 98.8 %
Extraction speed 4.6 X
Track quality 99.9 %
Test CRC A70627BE
Copy CRC A70627BE
Track not present in AccurateRip database
Copy OK

Track 13

Filename C:\Share1\Joy of Cooking\2006 - The Complete Joy of Cooking (Disc 2)\13. Home Town Man.wav

Peak level 100.0 %
Extraction speed 6.6 X
Track quality 100.0 %
Test CRC 849B0330
Copy CRC 849B0330
Track not present in AccurateRip database
Copy OK

Track 14

Filename C:\Share1\Joy of Cooking\2006 - The Complete Joy of Cooking (Disc 2)\14. All Around the Sun & the Moon.wav

Peak level 98.8 %
Extraction speed 6.9 X
Track quality 100.0 %
Test CRC 80C5FEAA
Copy CRC 80C5FEAA
Track not present in AccurateRip database
Copy OK

Track 15

Filename C:\Share1\Joy of Cooking\2006 - The Complete Joy of Cooking (Disc 2)\15. Bad Luck Blues.wav

Peak level 100.0 %
Extraction speed 6.9 X
Track quality 100.0 %
Test CRC 98789F66
Copy CRC 98789F66
Track not present in AccurateRip database
Copy OK


None of the tracks are present in the AccurateRip database

No errors occurred

End of status report

==== Log checksum 51FF2C26609E3614C7E95557435CE25EC16F1E912516364433D5668E6A7D7DF0 ====

[CUETools log; Date: 18.10.2017 21:25:15; Version: 2.1.4]
[CTDB TOCID: _iwlIZd.B49WaYRx4TqIl64Rr2E-] disk not present in database.
[AccurateRip ID: 001ed192-01603a78-e20d600f] found.
Track [ CRC | V2 ] Status
01 [b11a890e|5ad025c3] (0+1/2) Accurately ripped
02 [3388da01|6ecedfa1] (0+1/2) Accurately ripped
03 [0a1aaf62|d332560c] (0+1/2) Accurately ripped
04 [3787068c|17ebeb08] (0+1/2) Accurately ripped
05 [32b2fbab|a0190508] (0+1/2) Accurately ripped
06 [db3ec71e|5a6158ee] (0+1/2) Accurately ripped
07 [9a59fde5|c97c53b8] (0+1/2) Accurately ripped
08 [7513ea91|cbbedb1b] (0+1/2) Accurately ripped
09 [0847889b|cfea8010] (0+1/2) Accurately ripped
10 [8a0c2534|26ca9156] (0+1/2) Accurately ripped
11 [9a30f7f7|f13ce6d3] (0+1/2) Accurately ripped
12 [8f4f9e73|40603f76] (0+1/2) Accurately ripped
13 [ae44fb0f|66bf145f] (0+1/2) Accurately ripped
14 [e88beb82|91c61f5b] (0+1/2) Accurately ripped
15 [0bd75cd8|84de1f2d] (0+1/2) Accurately ripped

Track Peak [ CRC32 ] [W/O NULL] [ LOG ]
– 100,0 [A8A134C4] [47995FB4]
01 98,8 [F1032B4A] [9D91F57B] CRC32
02 86,4 [2064B319] [DFCAD507] CRC32
03 100,0 [EF3B9C84] [21475CAF] CRC32
04 98,8 [5C7F8D7C] [71F2C92D] CRC32
05 100,0 [9398B631] [290ED719] CRC32
06 99,8 [0C106004] [DD776DC7] CRC32
07 100,0 [A12A4B60] [F0FD59F0] CRC32
08 98,8 [2FB7270B] [3DB0826B] CRC32
09 98,8 [6901DB87] [0B427914] CRC32
10 98,8 [F6590A8B] [9A5053B7] CRC32
11 100,0 [ADF69870] [6AB3D590] CRC32
12 98,8 [A70627BE] [3FFB11C4] CRC32
13 100,0 [849B0330] [BF8AAF44] CRC32
14 98,8 [80C5FEAA] [1A64F802] CRC32
15 100,0 [98789F66] [FA8791F7] CRC32

foobar2000 1.2 / Dynamic Range Meter 1.1.1
log date: 2017-10-18 21:26:14

––––––––––––––––––––––––––––––––––––––––
Analyzed: Joy of Cooking / The Complete Joy of Cooking (Disc 2)
––––––––––––––––––––––––––––––––––––––––

DR Peak RMS Duration Track
––––––––––––––––––––––––––––––––––––––––
DR10 -0.10 dB -11.53 dB 3:28 01-Sometimes Like a River (Loving You)
DR9 -1.26 dB -12.79 dB 3:40 02-Pilot
DR11 0.00 dB -12.75 dB 2:41 03-The War You Left
DR11 -0.10 dB -12.30 dB 2:51 04-First Time, Last Time
DR12 0.00 dB -13.34 dB 5:35 05-Laugh, Don't Laugh
DR10 -0.01 dB -10.90 dB 4:08 06-Don't the Moon Look Fat & Lonesome
DR10 0.00 dB -11.89 dB 4:05 07-Waiting for the Last Plane
DR9 -0.10 dB -11.04 dB 3:27 08-Lady Called Love
DR10 -0.10 dB -12.40 dB 4:04 09-Three-Day Loser
DR11 -0.10 dB -12.20 dB 3:49 10-Castles
DR12 0.00 dB -13.32 dB 4:37 11-Beginning of Tomorrow
DR9 -0.10 dB -11.39 dB 2:44 12-Let Love Carry You Along
DR11 0.00 dB -12.71 dB 3:47 13-Home Town Man
DR9 -0.10 dB -11.40 dB 4:40 14-All Around the Sun & the Moon
DR10 0.00 dB -11.20 dB 3:30 15-Bad Luck Blues
––––––––––––––––––––––––––––––––––––––––

Number of tracks: 15
Official DR value: DR10

Samplerate: 44100 Hz
Channels: 2
Bits per sample: 16
Bitrate: 847 kbps
Codec: FLAC
================================================================================


Joy of Cooking - The Complete Joy of Cooking (2006) 2CD

Joy of Cooking - The Complete Joy of Cooking (2006) 2CD

All thanks to original releaser - indiffer

More interesting music in My Blog