Subcategories

Judy Collins - Whales & Nightingales (1970) [1990, Reissue]

Posted By: BlondStyle
Judy Collins - Whales & Nightingales (1970) [1990, Reissue]

Judy Collins - Whales & Nightingales (1970) [1990, Reissue]
Pop/Rock, Folk | EAC Rip | WavPack(WV), Img+CUE+LOG+Scans (JPEG) | 42:40 | 220,56 Mb
Label: Elektra/Asylum Records (Germany) | Cat.# 7559-75010-2 | Released: 1990 (1970)

"Whales & Nightingales" is a 1970 album by Judy Collins. It peaked at #17 on the Billboard Pop Albums charts. The album included material by Bob Dylan, Pete Seeger, Jacques Brel and Joan Baez, as well as Collins' top-forty version of "Amazing Grace", and the traditional "Farewell To Tarwathie", on which Collins sang to the accompaniment of humpback whales. The album was certified Gold by the RIAA in 1971, for sales of over 500,000 copies in the US.
~Wikipedia
Judy Collins found herself in the Top 40 with her adaptation of "Amazing Grace." Whales & Nightingales is full of good songs ranging from Bob Dylan's "Time Passes Slowly" to songs by Jacques Brel and Pete Seeger. Collins also had a hit with her adaptation of the song "Farewell to Tarwathie" which she sang over the accompaniment of Humpback Whales. It opened new doors for her and for folk music in general.
~Review by James Chrispell

Judy Collins - Whales & Nightingales (1970) [1990, Reissue]

Judy Collins - Whales & Nightingales (1970) [1990, Reissue]




Credits:

Arranged By, Adapted By – Judy Collins (tracks: 7, 12, 13)
Arranged By, Conductor – Joshua Rifkin (tracks: 2, 4, 9)
Artwork By [Cover Concept & Art Direction] – Williams S. Harvey
Engineer, Producer [Assistant] – John Haeny
Photography – Herb Goro
Producer – Mark Abramson


Release of this album: 1970, August [LP Elektra, Cat.# EKS-75010, USA]
Release of this CD: 1990 [CD Elektra/Asylum Records (Germany), Cat.# 7559-75010-2 / UPC: 075597501025]
Elektra/Asylum Records, a Division of Warner Communications Inc.
Ⓒ 1970 Elektra/Asylum Records
Made in Germany

Tracklist:

01. "A Song for David" (03:31)
(Joan Baez)
02. "Sons Of" (02:27)
(Eric Blau, Jacques Brel, Gerard Jouannest, Mort Shuman)
03. "The Patriot Game" (04:07)
(Dominic Behan)
04. "Prothalamium" (01:42)
(Michael Sahl, Aaron Kramer)
05. "Oh, Had I a Golden Thread" (03:58)
(Pete Seeger)
06. "Gene's Song" (01:22)
(Traditional)
07. "Farewell to Tarwathie" (05:32)
(Traditional)
08. "Time Passes Slowly" (03:36)
(Bob Dylan)
09. "Marieke" (03:18)
(Jacques Brel, Gerard Jouannest)
10. "Nightingale I" (02:11)
(Judy Collins)
11. "Nightingale II" (05:20)
(Judy Collins, Joshua Rifkin)
12. "Simple Gifts" (01:33)
(Traditional)
13. "Amazing Grace" (04:04)
(John Newton)

Exact Audio Copy V0.99 prebeta 1 from 25. May 2007

EAC extraction logfile from 1. July 2007, 16:19

Judy Collins / Whales & Nightingales

Used drive : _NEC DVD_RW ND-3540A Adapter: 1 ID: 0

Read mode : Secure
Utilize accurate stream : Yes
Defeat audio cache : Yes
Make use of C2 pointers : No

Read offset correction : 48
Overread into Lead-In and Lead-Out : No
Fill up missing offset samples with silence : Yes
Delete leading and trailing silent blocks : No
Used interface : Installed external ASPI interface

Used output format : User Defined Encoder
Selected bitrate : 320 kBit/s
Quality : High
Add ID3 tag : No
Command line compressor : D:\Tools\Audio\Codecs\wavpack.exe
Additional command line options : -m -w "Artist=%a" -w "Title=%g" -w "Album=%g" -w "Year=%y" -w "Track=1" -w "Genre=%m" -w "Comment=EAC (Secure Mode)" -h %s %d


TOC of the extracted CD

Track | Start | Length | Start sector | End sector
––––––––––––––––––––––––––––-
1 | 0:00.00 | 3:30.72 | 0 | 15821
2 | 3:30.72 | 2:26.63 | 15822 | 26834
3 | 5:57.60 | 4:06.65 | 26835 | 45349
4 | 10:04.50 | 1:41.60 | 45350 | 52984
5 | 11:46.35 | 3:57.52 | 52985 | 70811
6 | 15:44.12 | 1:22.28 | 70812 | 76989
7 | 17:06.40 | 5:31.70 | 76990 | 101884
8 | 22:38.35 | 3:35.70 | 101885 | 118079
9 | 26:14.30 | 3:18.17 | 118080 | 132946
10 | 29:32.47 | 2:11.13 | 132947 | 142784
11 | 31:43.60 | 5:19.47 | 142785 | 166756
12 | 37:03.32 | 1:32.65 | 166757 | 173721
13 | 38:36.22 | 4:03.58 | 173722 | 192004


Range status and errors

Selected range

Filename G:\Audio\CDRip\Judy Collins - [1970] - Whales & Nightingales\Whales & Nightingales.wav

Peak level 100.0 %
Range quality 100.0 %
Copy CRC F9EAEB1B
Copy OK


AccurateRip summary

Track 1 not present in database
Track 2 not present in database
Track 3 not present in database
Track 4 not present in database
Track 5 not present in database
Track 6 not present in database
Track 7 not present in database
Track 8 not present in database
Track 9 not present in database
Track 10 not present in database
Track 11 not present in database
Track 12 not present in database
Track 13 not present in database

No errors occurred

End of status report

––––––––––––––––––––––––––––––––––––––––
Analyzed: Judy Collins / Whales & Nightingales
––––––––––––––––––––––––––––––––––––––––

DR Peak RMS Duration Track
––––––––––––––––––––––––––––––––––––––––
DR12 -0.05 dB -15.92 dB 3:31 01-Song For David
DR11 0.00 dB -17.22 dB 2:27 02-Sons Of
DR13 0.00 dB -17.14 dB 4:07 03-The Patriot Game
DR10 -1.62 dB -16.87 dB 1:42 04-Prothalamium
DR12 -1.64 dB -18.85 dB 3:58 05-Oh, Had I A Golden Thread
DR10 -4.15 dB -25.55 dB 1:22 06-Gene's Song
DR12 -3.99 dB -21.37 dB 5:32 07-Farewell To Tarwathie
DR13 -0.40 dB -16.41 dB 3:36 08-Time Passes Slowly
DR11 -0.62 dB -15.33 dB 3:18 09-Marieke
DR11 -1.62 dB -18.25 dB 2:11 10-Nightingale I
DR11 -1.30 dB -17.97 dB 5:20 11-Nightingale II
DR10 -4.58 dB -19.88 dB 1:33 12-Simple Gifts
DR11 -1.21 dB -17.22 dB 4:04 13-Amazing Grace
––––––––––––––––––––––––––––––––––––––––

Number of tracks: 13
Official DR value: DR11

Samplerate: 44100 Hz
Channels: 2
Bits per sample: 16
Bitrate: 686 kbps
Codec: WavPack
================================================================================

Thanks to kintelen

See also:
Judy Collins - Times Of Our Lives (1982) [1989, Reissue]

♫~Welcome To My Blog~♫

password: BlondStyle