Subcategories

Julian Prégardien - Schubertiade (2015)

Posted By: tirexiss
Julian Prégardien - Schubertiade (2015)

Julian Prégardien - Schubertiade (2015)
EAC | FLAC (image+.cue, log) | Covers Included | 74:51 | 328 MB
Genre: Classical, Vocal | Label: Myrios Classics | Catalog: MYR018

In their 'Schubertiade', Julian Pregardien and his instrumental friends recreate the special artistic mood one could have felt in Schubert’s day in a Viennese salon. To evoke that atmosphere, they have created a new collage of musical and literary fragments associated with the composer, featuring the unusual combination of flute, baryton and guitar.
Three experienced early music specialists with the best credentials – Philippe Pierlot, Marc Hantai and Xavier Diaz-Latorre, known from the Ricercar Consort, Le Concert des Nations and Les Arts Florissants – gather as a fine instrumental ensemble around one of the young singers most in demand on the current musical scene. With them, he presents his new SACD album “Schubertiade” on the Cologne-based Myrios classics label. Well-known Schubert songs such as 'Heidenroslein', the 'Harpist’s Song' and 'Schwanengesang' alternate here with dances and short instrumental pieces.

Julian Prégardien - Schubertiade (2015)

Track List:

Schubertiade
Lieder, instrumental pieces and poems by and inspired by Franz Schubert

[1] „Die Szene ist ein Bild“ (Peter Härtling)*
[2] Der Wanderer D 489 Op. 4 Nr. 1 †
[3] Klage an das Volk (Franz Schubert)
[4] Morgenlied D 685 Op. 4 Nr. 2 +
[5] Tänze Nr. 1 & 5 aus D 365 Op. 9 †
[6] Schäfers Klagelied D 121 Op. 3 Nr. 1 +
[7] Heidenröslein D 257 Op. 3 Nr. 3 +
[8] 20. August 1815 (Michael Stegemann)**
[9] Wanderers Nachtlied D 224 Op. 4 Nr. 3 +
[10]-[11] Notturno Op. 21 (Wenzel Matiegka)
[12] Auf dem Strom D 943 Op. posthum 119 ‡
[13] Sehnsucht D 516 Op. 8 Nr. 2 +
[14] Nachtviolen Op. 2 (Johann Kaspar Mertz)
[15] Schwanengesang D 744 Op. 23 Nr. 3 +
[16] Auf dem Wasser zu singen D 774 Op. 72 +
[17] Lachen und Weinen D 777 Op. 59 Nr. 4 +
[18] Geheimnis. An Franz Schubert (Johann Baptist Mayrhofer)
[19] Nachtviolen D 752 WoO +
[20] „Ich kann die Scharade nicht erraten“ (Peter Härtling)*

Gesänge des Harfners Op. 12 +
[21] Wer sich der Einsamkeit ergibt D 478
[22] Improvisation
[23] Wer nie sein Brot mit Tränen aß D 480
[24] Improvisation
[25] An die Türen will ich schleichen D 479

[26] Menuetto & Trio aus D 894 Op. 78 +
[27] An Franz (Johann Baptist Mayrhofer)
[28] Ständchen (aus „Schwanengesang“) D 957/4 WoO +

* Peter Härtling: Schubert (excerpt)
** Michael Stegemann: Ich bin zu Ende mit allen Träumen (excerpt)

Arrangements
+ Philippe Pierlot † Anton Diabelli ‡ Xavier Diaz-Latorre

Performers:
Julian Prégardien, tenor & recitation
Marc Hantaï Transverse, Flute
Xavier Diaz-Latorre, Guitar
Philippe Pierlot, Baryton

Exact Audio Copy V1.1 from 23. June 2015

EAC extraction logfile from 16. February 2017, 23:36

Julian Prégardien, Marc Hantai, Philippe Pierlot, Xavier Diaz-Latorre / Schubertiade

Used drive : HL-DT-STDVDRAM GU70N Adapter: 1 ID: 0

Read mode : Secure
Utilize accurate stream : Yes
Defeat audio cache : Yes
Make use of C2 pointers : No

Read offset correction : 48
Overread into Lead-In and Lead-Out : No
Fill up missing offset samples with silence : Yes
Delete leading and trailing silent blocks : No
Null samples used in CRC calculations : Yes
Used interface : Native Win32 interface for Win NT & 2000

Used output format : User Defined Encoder
Selected bitrate : 128 kBit/s
Quality : High
Add ID3 tag : No
Command line compressor : C:\Program Files (x86)\Exact Audio Copy\Flac\flac.exe
Additional command line options : -V -8 -T "Date=%year%" -T "Genre=%genre%" %source%


TOC of the extracted CD

Track | Start | Length | Start sector | End sector
––––––––––––––––––––––––––––-
1 | 0:00.00 | 1:16.23 | 0 | 5722
2 | 1:16.23 | 4:21.38 | 5723 | 25335
3 | 5:37.61 | 0:42.73 | 25336 | 28558
4 | 6:20.59 | 4:46.34 | 28559 | 50042
5 | 11:07.18 | 1:16.67 | 50043 | 55809
6 | 12:24.10 | 3:02.36 | 55810 | 69495
7 | 15:26.46 | 1:49.64 | 69496 | 77734
8 | 17:16.35 | 1:27.03 | 77735 | 84262
9 | 18:43.38 | 1:19.22 | 84263 | 90209
10 | 20:02.60 | 5:27.28 | 90210 | 114762
11 | 25:30.13 | 3:08.19 | 114763 | 128881
12 | 28:38.32 | 8:44.31 | 128882 | 168212
13 | 37:22.63 | 3:35.13 | 168213 | 184350
14 | 40:58.01 | 2:04.74 | 184351 | 193724
15 | 43:03.00 | 2:49.49 | 193725 | 206448
16 | 45:52.49 | 3:25.65 | 206449 | 221888
17 | 49:18.39 | 1:43.41 | 221889 | 229654
18 | 51:02.05 | 0:59.21 | 229655 | 234100
19 | 52:01.26 | 2:47.27 | 234101 | 246652
20 | 54:48.53 | 0:51.07 | 246653 | 250484
21 | 55:39.60 | 3:14.37 | 250485 | 265071
22 | 58:54.22 | 0:44.37 | 265072 | 268408
23 | 59:38.59 | 4:09.60 | 268409 | 287143
24 | 63:48.44 | 0:53.39 | 287144 | 291157
25 | 64:42.08 | 2:05.66 | 291158 | 300598
26 | 66:47.74 | 3:39.50 | 300599 | 317073
27 | 70:27.49 | 0:39.58 | 317074 | 320056
28 | 71:07.32 | 3:42.11 | 320057 | 336717


Range status and errors

Selected range

Filename C:\temp\Schubertiade - Pregardien\Schubertiade.wav

Peak level 88.8 %
Extraction speed 2.3 X
Range quality 100.0 %
Test CRC 6DE02E3E
Copy CRC 6DE02E3E
Copy OK

No errors occurred


AccurateRip summary

Track 1 accurately ripped (confidence 1) [45804C69] (AR v2)
Track 2 accurately ripped (confidence 1) [83D71257] (AR v2)
Track 3 accurately ripped (confidence 1) [BCAF00D9] (AR v2)
Track 4 accurately ripped (confidence 1) [CA4DC2D0] (AR v2)
Track 5 accurately ripped (confidence 1) [C6F2873E] (AR v2)
Track 6 accurately ripped (confidence 1) [1236F692] (AR v2)
Track 7 accurately ripped (confidence 1) [3A8E91FE] (AR v2)
Track 8 accurately ripped (confidence 1) [B79075BD] (AR v2)
Track 9 accurately ripped (confidence 1) [30DFD528] (AR v2)
Track 10 accurately ripped (confidence 1) [CBDCCA56] (AR v2)
Track 11 accurately ripped (confidence 1) [072138B2] (AR v2)
Track 12 accurately ripped (confidence 1) [67D58EDF] (AR v2)
Track 13 accurately ripped (confidence 1) [DF3E893E] (AR v2)
Track 14 accurately ripped (confidence 1) [CD602F31] (AR v2)
Track 15 accurately ripped (confidence 1) [04A0F335] (AR v2)
Track 16 accurately ripped (confidence 1) [80A5C039] (AR v2)
Track 17 accurately ripped (confidence 1) [55D2DE3B] (AR v2)
Track 18 accurately ripped (confidence 1) [A7383B2E] (AR v2)
Track 19 accurately ripped (confidence 1) [141C7395] (AR v2)
Track 20 accurately ripped (confidence 1) [2F4CEA16] (AR v2)
Track 21 accurately ripped (confidence 1) [764EF0B6] (AR v2)
Track 22 accurately ripped (confidence 1) [90FA2182] (AR v2)
Track 23 accurately ripped (confidence 1) [2173DB58] (AR v2)
Track 24 accurately ripped (confidence 1) [B8594D6D] (AR v2)
Track 25 accurately ripped (confidence 1) [5868154B] (AR v2)
Track 26 accurately ripped (confidence 1) [634B40D3] (AR v2)
Track 27 accurately ripped (confidence 1) [34EE1E6B] (AR v2)
Track 28 accurately ripped (confidence 1) [B8898252] (AR v2)

All tracks accurately ripped

End of status report

==== Log checksum 871B7DF9CD255B5737A81979730A5E3AACA5C0012725EBDC2B0FEAF58E3FACB1 ====

[CUETools log; Date: 07.11.2017 18:16:06; Version: 2.1.5]
[CTDB TOCID: 5pVrDtYhurB1tdWz86DVSFIeN38-] found.
Track | CTDB Status
1 | (9/9) Accurately ripped
2 | (9/9) Accurately ripped
3 | (9/9) Accurately ripped
4 | (9/9) Accurately ripped
5 | (9/9) Accurately ripped
6 | (9/9) Accurately ripped
7 | (9/9) Accurately ripped
8 | (9/9) Accurately ripped
9 | (9/9) Accurately ripped
10 | (9/9) Accurately ripped
11 | (9/9) Accurately ripped
12 | (9/9) Accurately ripped
13 | (9/9) Accurately ripped
14 | (9/9) Accurately ripped
15 | (9/9) Accurately ripped
16 | (9/9) Accurately ripped
17 | (9/9) Accurately ripped
18 | (9/9) Accurately ripped
19 | (9/9) Accurately ripped
20 | (9/9) Accurately ripped
21 | (9/9) Accurately ripped
22 | (9/9) Accurately ripped
23 | (9/9) Accurately ripped
24 | (9/9) Accurately ripped
25 | (9/9) Accurately ripped
26 | (9/9) Accurately ripped
27 | (9/9) Accurately ripped
28 | (9/9) Accurately ripped
[AccurateRip ID: 004d189c-0607aea6-8f11891c] found.
Track [ CRC | V2 ] Status
01 [62535bda|45804c69] (0+4/4) Accurately ripped
02 [45d38b07|83d71257] (0+4/4) Accurately ripped
03 [2da9e9ca|bcaf00d9] (0+4/4) Accurately ripped
04 [bc06139f|ca4dc2d0] (0+4/4) Accurately ripped
05 [3e7bce45|c6f2873e] (0+4/4) Accurately ripped
06 [ce50fc1a|1236f692] (0+4/4) Accurately ripped
07 [423bb0de|3a8e91fe] (0+4/4) Accurately ripped
08 [7bc33e25|b79075bd] (0+4/4) Accurately ripped
09 [d50d4d81|30dfd528] (0+4/4) Accurately ripped
10 [a3b8fa94|cbdcca56] (0+4/4) Accurately ripped
11 [6ec61298|072138b2] (0+4/4) Accurately ripped
12 [f3095fca|67d58edf] (0+4/4) Accurately ripped
13 [80b9c57f|df3e893e] (0+4/4) Accurately ripped
14 [59f922f9|cd602f31] (0+4/4) Accurately ripped
15 [b9102b23|04a0f335] (0+4/4) Accurately ripped
16 [a5869e6b|80a5c039] (0+4/4) Accurately ripped
17 [6f160e5b|55d2de3b] (0+4/4) Accurately ripped
18 [d36b9d17|a7383b2e] (0+4/4) Accurately ripped
19 [21571701|141c7395] (0+4/4) Accurately ripped
20 [2c5e3f1a|2f4cea16] (0+4/4) Accurately ripped
21 [746ddae2|764ef0b6] (0+4/4) Accurately ripped
22 [5e52c5e3|90fa2182] (0+4/4) Accurately ripped
23 [1a3f4553|2173db58] (0+4/4) Accurately ripped
24 [c59e950d|b8594d6d] (0+4/4) Accurately ripped
25 [ee96be38|5868154b] (0+4/4) Accurately ripped
26 [8a59fd61|634b40d3] (0+4/4) Accurately ripped
27 [0fcbaa08|34ee1e6b] (0+4/4) Accurately ripped
28 [7fbd4c1c|b8898252] (0+4/4) Accurately ripped

Track Peak [ CRC32 ] [W/O NULL] [ LOG ]
– 88,8 [6DE02E3E] [877A7F04] CRC32
01 30,7 [0A394649] [1363A2F2]
02 86,7 [837BB011] [3D31BE40]
03 31,8 [8D727698] [EDB07923]
04 72,6 [AD359517] [972FAA5C]
05 31,3 [F6E9710B] [6D24F917]
06 88,5 [9C0E0159] [2369F703]
07 70,4 [9D4A41C6] [ECAFFB89]
08 48,5 [CE572D14] [F30BF9F3]
09 56,2 [551F64F2] [8537E0A8]
10 58,6 [21A60F8E] [DF767A9A]
11 73,5 [4B584CFF] [F78FBE9D]
12 88,8 [A862F653] [7E3DB227]
13 72,4 [7E5FAB07] [101A250B]
14 18,3 [6AE30315] [8B27EA90]
15 61,2 [83439C40] [0BC627C3]
16 88,4 [E6F4B8AB] [B11935E7]
17 88,1 [2BE785BA] [02D2EA54]
18 44,4 [3F9A44B7] [D5E55500]
19 76,8 [F35B2361] [D36368AC]
20 24,8 [F45EBDE3] [C45D2015]
21 73,3 [BE23CEDD] [6A2E8C0D]
22 26,6 [FC968950] [F77CF0BF]
23 81,8 [3EC2C188] [54C8DAD1]
24 15,2 [DF7C7BF7] [0A60E9C0]
25 73,2 [4BD93873] [FD37DFE3]
26 47,6 [CB402CF2] [84804C0B]
27 33,9 [BF790D29] [091D9BF3]
28 78,9 [2077EE07] [34BA69E0]

Thanks to the Original ripper A-Z!

Download: