Subcategories

Justin Hayward - Night Flight (1980) {2004 Remastered Reissue}

Posted By: popsakov
Justin Hayward - Night Flight (1980) {2004 Remastered Reissue}

Justin Hayward - Night Flight (1980) {2004 Remastered Reissue}
EAC Rip | FLAC (Img) + Cue + Log ~ 372 Mb | MP3 CBR320 ~ 133 Mb
Scans Included (JPG, 300 dpi) | RAR 5% Recovery
Pop Rock, Soft Rock, Prog Rock, Classic Rock | Decca #882 282-2

Justin Hayward's Night Flight was never too impressive in its original LP release – the pressing was noisy and the sound was just different enough from his prior records to be off-putting. The quarter century since its release has allowed the recording to age well; additionally, the 2004 remastered edition finally shows off the finer points of producer Jeff Wayne's approach to serious advantage – the music comes off as lean and spacious, and Hayward's singing displays the power and richness in this reissue to carry the album properly. Additionally, one of the two bonus tracks, a live version of "Forever Autumn" from a concert at San Juan Capistrano, extends the value of the CD considerably, as a previously unreleased version of the song that started Hayward's professional relationship with Wayne and led to the recording of the original LP (in addition to being one of the prettiest songs with which Hayward has ever been associated).
~ Bruce Eder, All Music
Justin Hayward - Night Flight (1980) {2004 Remastered Reissue}


***************

Justin Hayward - Night Flight (1980) {2004 Remastered Reissue}

Track List:

01. Night Flight [5:25]
02. Maybe It's Just Love [4:49]
03. Crazy Lovers [5:32]
04. Penumbra Moon [4:12]
05. Nearer To You [3:41]
06. A Face In The Crowd [4:02]
07. Suitcase [3:37]
08. I'm Sorry [3:11]
09. It's Not On [4:10]
10. Bedtime Stories [5:45]
Bonus Tracks
11. Bedtime Stories (Single Version) [4:09]
12. Forever Autum (Live) [4:26]

Personnel:
Justin Hayward - vocals and guitars, bass and drums on "Suitcase"
Jeff Wayne - piano on "Night Flight"
Jo Partridge - guitars
Ken Freeman - keyboards
Herbie Flowers - bass
Barry de Souza, Stuart Elliott - drums
Dave Holland - drums on "Crazy Lovers"
Roy Jones, Tony Carr - percussion

Exact Audio Copy V1.1 from 23. June 2015

EAC extraction logfile from 14. March 2018, 14:21

Justin Hayward / Night Flight

Used drive : TSSTcorpCDDVDW SH-224DB Adapter: 1 ID: 0

Read mode : Secure
Utilize accurate stream : Yes
Defeat audio cache : Yes
Make use of C2 pointers : No

Read offset correction : 6
Overread into Lead-In and Lead-Out : No
Fill up missing offset samples with silence : Yes
Delete leading and trailing silent blocks : No
Null samples used in CRC calculations : Yes
Used interface : Native Win32 interface for Win NT & 2000

Used output format : User Defined Encoder
Selected bitrate : 1024 kBit/s
Quality : High
Add ID3 tag : No
Command line compressor : C:\Program Files (x86)\Exact Audio Copy\win64\flac.exe
Additional command line options : -8 -V -T "ARTIST=%artist%" -T "TITLE=%title%" -T "ALBUM=%albumtitle%" -T "DATE=%year%" -T "TRACKNUMBER=%tracknr%" -T "GENRE=%genre%" -T "COMMENT=%comment%" %source% -o %dest%


TOC of the extracted CD

Track | Start | Length | Start sector | End sector
––––––––––––––––––––––––––––-
1 | 0:00.00 | 5:24.43 | 0 | 24342
2 | 5:24.43 | 4:48.40 | 24343 | 45982
3 | 10:13.08 | 5:31.40 | 45983 | 70847
4 | 15:44.48 | 4:12.06 | 70848 | 89753
5 | 19:56.54 | 3:41.37 | 89754 | 106365
6 | 23:38.16 | 4:01.54 | 106366 | 124494
7 | 27:39.70 | 3:36.71 | 124495 | 140765
8 | 31:16.66 | 3:10.50 | 140766 | 155065
9 | 34:27.41 | 4:10.07 | 155066 | 173822
10 | 38:37.48 | 5:45.03 | 173823 | 199700
11 | 44:22.51 | 4:08.45 | 199701 | 218345
12 | 48:31.21 | 4:26.14 | 218346 | 238309


Range status and errors

Selected range

Filename F:\Sket4er\Justin Hayward – Night Flight (1980) 2004\Justin Hayward - Night Flight.wav

Peak level 98.9 %
Extraction speed 3.1 X
Range quality 100.0 %
Test CRC 028E7125
Copy CRC 028E7125
Copy OK

No errors occurred


AccurateRip summary

Track 1 cannot be verified as accurate (confidence 7) [C1B6AF3F], AccurateRip returned [886ED50A] (AR v2)
Track 2 cannot be verified as accurate (confidence 7) [1AB093EC], AccurateRip returned [67BBB8AB] (AR v2)
Track 3 cannot be verified as accurate (confidence 7) [943B7199], AccurateRip returned [10D652C9] (AR v2)
Track 4 cannot be verified as accurate (confidence 7) [5C5326BC], AccurateRip returned [3550052F] (AR v2)
Track 5 cannot be verified as accurate (confidence 7) [B71F1A9E], AccurateRip returned [8C9CA91C] (AR v2)
Track 6 cannot be verified as accurate (confidence 7) [806A4D62], AccurateRip returned [DE5192ED] (AR v2)
Track 7 cannot be verified as accurate (confidence 7) [A5DBE152], AccurateRip returned [32F0CDF0] (AR v2)
Track 8 cannot be verified as accurate (confidence 7) [774AE3C6], AccurateRip returned [39A5BEF1] (AR v2)
Track 9 cannot be verified as accurate (confidence 7) [02B4B29B], AccurateRip returned [61FFAE7A] (AR v2)
Track 10 cannot be verified as accurate (confidence 7) [9284B171], AccurateRip returned [051D5E77] (AR v2)
Track 11 cannot be verified as accurate (confidence 7) [CECB0DF1], AccurateRip returned [6E6B6D15] (AR v2)
Track 12 cannot be verified as accurate (confidence 7) [B0DB4522], AccurateRip returned [536F4AAA] (AR v2)

No tracks could be verified as accurate
You may have a different pressing from the one(s) in the database

End of status report

–– CUETools DB Plugin V2.1.6

[CTDB TOCID: Q5tNieEyOFw625o3hZIOM_r59YA-] found
Submit result: Q5tNieEyOFw625o3hZIOM_r59YA- has been confirmed
Track | CTDB Status
1 | (22/22) Accurately ripped
2 | (21/22) Accurately ripped
3 | (22/22) Accurately ripped
4 | (22/22) Accurately ripped
5 | (22/22) Accurately ripped
6 | (22/22) Accurately ripped
7 | (22/22) Accurately ripped
8 | (22/22) Accurately ripped
9 | (22/22) Accurately ripped
10 | (22/22) Accurately ripped
11 | (21/22) Accurately ripped
12 | (22/22) Accurately ripped


==== Log checksum 0F067D6FAA372C437B9A1E9C2D959885074209B4028350B7EBDEF8DEA9BF6CFE ====

foobar2000 1.3.16 / Dynamic Range Meter 1.1.1
log date: 2018-03-24 00:58:04

––––––––––––––––––––––––––––––––––––––––
Analyzed: Justin Hayward / Night Flight
––––––––––––––––––––––––––––––––––––––––

DR Peak RMS Duration Track
––––––––––––––––––––––––––––––––––––––––
DR9 -0.09 dB -10.33 dB 5:25 01-Night Flight
DR9 -0.10 dB -10.96 dB 4:49 02-Maybe It's Just Love
DR9 -0.09 dB -9.68 dB 5:32 03-Crazy Lovers
DR9 -0.10 dB -10.99 dB 4:12 04-Penumbra Moon
DR10 -0.10 dB -11.81 dB 3:41 05-Nearer To You
DR9 -0.10 dB -10.64 dB 4:02 06-A Face In The Crowd
DR10 -0.10 dB -12.09 dB 3:37 07-Suitcase
DR10 -0.10 dB -11.55 dB 3:11 08-I'm Sorry
DR10 -0.09 dB -12.59 dB 4:10 09-It's Not On
DR10 -0.10 dB -11.80 dB 5:45 10-Bedtime Stories
DR10 -0.10 dB -11.45 dB 4:09 11-Bedtime Stories (Single Version)
DR8 -0.76 dB -11.27 dB 4:26 12-Forever Autum (Live)
––––––––––––––––––––––––––––––––––––––––

Number of tracks: 12
Official DR value: DR9

Samplerate: 44100 Hz
Channels: 2
Bits per sample: 16
Bitrate: 920 kbps
Codec: FLAC
================================================================================

[CUETools log; Date: 24.03.2018 0:58:07; Version: 2.1.6]
[CTDB TOCID: Q5tNieEyOFw625o3hZIOM_r59YA-] found.
Track | CTDB Status
1 | (24/24) Accurately ripped
2 | (23/24) Accurately ripped
3 | (24/24) Accurately ripped
4 | (24/24) Accurately ripped
5 | (24/24) Accurately ripped
6 | (24/24) Accurately ripped
7 | (24/24) Accurately ripped
8 | (24/24) Accurately ripped
9 | (24/24) Accurately ripped
10 | (24/24) Accurately ripped
11 | (23/24) Accurately ripped
12 | (24/24) Accurately ripped
[AccurateRip ID: 00183a59-00ded428-ad0c690c] found.
Track [ CRC | V2 ] Status
01 [d51709c2|c1b6af3f] (00+00/15) No match
02 [601afb3d|1ab093ec] (00+00/15) No match
03 [023c0a48|943b7199] (00+00/14) No match
04 [57ad85b5|5c5326bc] (00+00/14) No match
05 [16ec7a1a|b71f1a9e] (00+00/14) No match
06 [3e05d615|806a4d62] (00+00/12) No match
07 [42aff0c7|a5dbe152] (00+00/14) No match
08 [b677425d|774ae3c6] (00+00/14) No match
09 [c7eb482c|02b4b29b] (00+00/14) No match
10 [55f1dbe8|9284b171] (00+00/14) No match
11 [3e919a4f|cecb0df1] (00+00/14) No match
12 [fe3b64bd|b0db4522] (00+00/14) No match
Offsetted by 24:
01 [7539fe20] (05/15) Accurately ripped
02 [7afd70c4] (05/15) Accurately ripped
03 [431cea9b] (05/14) Accurately ripped
04 [f4da471d] (05/14) Accurately ripped
05 [2ac0ff2d] (05/14) Accurately ripped
06 [5d947471] (05/12) Accurately ripped
07 [6f871485] (05/14) Accurately ripped
08 [c1fc5665] (05/14) Accurately ripped
09 [1f3a9149] (05/14) Accurately ripped
10 [2a38a3a6] (05/14) Accurately ripped
11 [c4d3447f] (05/14) Accurately ripped
12 [90db5f3d] (05/14) Accurately ripped
Offsetted by 6:
01 [9a154a7c] (00/15) No match (V2 was not tested)
02 [ad1addff] (00/15) No match (V2 was not tested)
03 [7edb0d82] (00/14) No match (V2 was not tested)
04 [31fc7239] (00/14) No match (V2 was not tested)
05 [ebd7d620] (00/14) No match (V2 was not tested)
06 [9d2b0949] (00/12) No match (V2 was not tested)
07 [cf2f5f57] (00/14) No match (V2 was not tested)
08 [7a506447] (00/14) No match (V2 was not tested)
09 [25e78a8a] (00/14) No match (V2 was not tested)
10 [cb3d4e36] (00/14) No match (V2 was not tested)
11 [e02204db] (00/14) No match (V2 was not tested)
12 [a2e3635d] (00/14) No match (V2 was not tested)

Track Peak [ CRC32 ] [W/O NULL] [ LOG ]
– 98,9 [028E7125] [9CD917DA] CRC32
01 98,9 [2D883A70] [9C5D3F51]
02 98,8 [12DFB49B] [F0CB9D02]
03 98,9 [9822E5F7] [D174D8AB]
04 98,8 [61F2F3D8] [F4297944]
05 98,8 [916A7AA6] [27FD6400]
06 98,8 [C4E8632E] [338503A5]
07 98,8 [CB3E2436] [5723B473]
08 98,8 [D5A403D4] [BAAA4632]
09 98,9 [23575ABA] [91C39043]
10 98,8 [898D082D] [032C7272]
11 98,8 [55B55D11] [B0590AA2]
12 91,6 [8434BB30] [7DF33794]

Justin Hayward - Night Flight (1980) {2004 Remastered Reissue}

See also:
Justin Hayward & John Lodge - Blue Jays (1975) [2004, Reissue, Remastered]
Justin Hayward With Mike Batt And The London Philharmonic Orchestra - Classic Blue (1989) {2005, Reissue}

All thanks go to Sket4er

>>> My Blog <<<

Download from icerbox.com: