Subcategories

Kool Keith - Matthew (2000) {Funky Ass} **[RE-UP]**

Posted By: TestTickles
Kool Keith - Matthew (2000) {Funky Ass} **[RE-UP]**

Kool Keith - Matthew (2000) {Funky Ass}
EAC Rip | FLAC with CUE and log | scans | 314 mb
MP3 CBR 320kbps | RAR | 119 mb
Genre: hip-hop, rap

Matthew is not only Keith Thornton's middle name but it is also the title of his 2000 album under the name Kool Keith. After releasing an album on a major label, Keith returned to his independent label, Funky Ass. This has him working with Kut Masta Kurt, whom he would work with as one half of The Diesel Truckers.

Kool Keith - Matthew (2000) {Funky Ass} **[RE-UP]**

1. F-U M.F. (2:50)
2. 27 Shots (3:18)
3. Errand Boy (Skit) (0:51)
4. Operation Extortion (3:13)
5. Baddest M.C. (3:10)
6. Extravagant Traveler (3:46)
7. Recoupment (Skit) (1:04)
8. I Don't Believe You (3:03)
9. Lived In The Projects (3:00)
10. Keith N Bumpy (featuring Bumpy) (3:26)
11. The Set Up (Skit) (0:32)
12. Shoes N Suits (3:52)
13. Diamonds (3:48)
14. Sweet Unique Pete (2:54)
15. Do You Masturbate? (0:31)
16. Back Stage Passes (3:19)
17. Mad Man Departure (2:25)
HIDDEN TRACKS
18. White Label Test Press (3:40)
19. Sweet Unique Pete (Reprise) (2:58)

Produced by Kool Keith for The Diesel Truckers
Programming and additional production by The Funky Redneck (b/k/a Kut Masta Kurt) (track 16) and Black Silver (track 14) for The Beat Servants
Recorded and mixed by Kurt Matlin
Mastered by Gene Grimaldi

Executive Producer: Keith Thornton
Project Coordinator: Kurt Matlin

Kool Keith - Matthew (2000) {Funky Ass} **[RE-UP]**


Exact Audio Copy V1.1 from 23. June 2015

EAC extraction logfile from 13. November 2016, 12:07

Kool Keith / Matthew

Used drive : TEAC DVD-ROM DV-28SW Adapter: 1 ID: 0

Read mode : Secure
Utilize accurate stream : Yes
Defeat audio cache : Yes
Make use of C2 pointers : No

Read offset correction : 6
Overread into Lead-In and Lead-Out : No
Fill up missing offset samples with silence : Yes
Delete leading and trailing silent blocks : No
Null samples used in CRC calculations : Yes
Used interface : Native Win32 interface for Win NT & 2000
Gap handling : Appended to previous track

Used output format : Internal WAV Routines
Sample format : 44.100 Hz; 16 Bit; Stereo


TOC of the extracted CD

Track | Start | Length | Start sector | End sector
––––––––––––––––––––––––––––-
1 | 0:00.00 | 2:51.42 | 0 | 12866
2 | 2:51.42 | 3:18.65 | 12867 | 27781
3 | 6:10.32 | 0:51.58 | 27782 | 31664
4 | 7:02.15 | 3:13.15 | 31665 | 46154
5 | 10:15.30 | 3:10.45 | 46155 | 60449
6 | 13:26.00 | 3:46.67 | 60450 | 77466
7 | 17:12.67 | 1:04.58 | 77467 | 82324
8 | 18:17.50 | 3:03.50 | 82325 | 96099
9 | 21:21.25 | 3:00.37 | 96100 | 109636
10 | 24:21.62 | 3:26.67 | 109637 | 125153
11 | 27:48.54 | 0:32.43 | 125154 | 127596
12 | 28:21.22 | 3:52.53 | 127597 | 145049
13 | 32:14.00 | 3:48.57 | 145050 | 162206
14 | 36:02.57 | 2:54.05 | 162207 | 175261
15 | 38:56.62 | 0:31.30 | 175262 | 177616
16 | 39:28.17 | 3:19.03 | 177617 | 192544
17 | 42:47.20 | 9:54.30 | 192545 | 237124


Track 1

Filename C:\My Documents\My FLAC\Kool Keith - Matthew (2000) [FLAC] {Funky Ass}\01 - F-U M.F..wav

Pre-gap length 0:00:02.00

Peak level 98.8 %
Extraction speed 2.6 X
Track quality 100.0 %
Test CRC 8410D6C2
Copy CRC 8410D6C2
Accurately ripped (confidence 11) [698C86C7] (AR v2)
Copy OK

Track 2

Filename C:\My Documents\My FLAC\Kool Keith - Matthew (2000) [FLAC] {Funky Ass}\02 - 27 Shots.wav

Pre-gap length 0:00:00.52

Peak level 98.8 %
Extraction speed 2.3 X
Track quality 99.9 %
Test CRC ECACE01A
Copy CRC ECACE01A
Accurately ripped (confidence 11) [7F738851] (AR v2)
Copy OK

Track 3

Filename C:\My Documents\My FLAC\Kool Keith - Matthew (2000) [FLAC] {Funky Ass}\03 - Errand Boy (Skit).wav

Peak level 68.8 %
Extraction speed 1.3 X
Track quality 99.7 %
Test CRC 5EAF1FD5
Copy CRC 5EAF1FD5
Accurately ripped (confidence 11) [2C334363] (AR v2)
Copy OK

Track 4

Filename C:\My Documents\My FLAC\Kool Keith - Matthew (2000) [FLAC] {Funky Ass}\04 - Operation Extortion.wav

Peak level 100.0 %
Extraction speed 2.5 X
Track quality 99.9 %
Test CRC 7FF8780B
Copy CRC 7FF8780B
Accurately ripped (confidence 11) [89AA0B4F] (AR v2)
Copy OK

Track 5

Filename C:\My Documents\My FLAC\Kool Keith - Matthew (2000) [FLAC] {Funky Ass}\05 - Baddest M.C..wav

Peak level 98.8 %
Extraction speed 3.2 X
Track quality 100.0 %
Test CRC EA085886
Copy CRC EA085886
Accurately ripped (confidence 11) [FC50ACA2] (AR v2)
Copy OK

Track 6

Filename C:\My Documents\My FLAC\Kool Keith - Matthew (2000) [FLAC] {Funky Ass}\06 - Extravagant Traveler.wav

Peak level 96.6 %
Extraction speed 3.2 X
Track quality 100.0 %
Test CRC EBCC7BE8
Copy CRC EBCC7BE8
Accurately ripped (confidence 11) [35E69F04] (AR v2)
Copy OK

Track 7

Filename C:\My Documents\My FLAC\Kool Keith - Matthew (2000) [FLAC] {Funky Ass}\07 - Recoupment (Skit).wav

Peak level 64.5 %
Extraction speed 2.3 X
Track quality 100.0 %
Test CRC 5104A3F6
Copy CRC 5104A3F6
Accurately ripped (confidence 11) [596AA162] (AR v2)
Copy OK

Track 8

Filename C:\My Documents\My FLAC\Kool Keith - Matthew (2000) [FLAC] {Funky Ass}\08 - I Don't Believe You.wav

Peak level 99.6 %
Extraction speed 3.6 X
Track quality 100.0 %
Test CRC DBF04DF0
Copy CRC DBF04DF0
Accurately ripped (confidence 11) [5D7E83DF] (AR v2)
Copy OK

Track 9

Filename C:\My Documents\My FLAC\Kool Keith - Matthew (2000) [FLAC] {Funky Ass}\09 - Lived In The Projects.wav

Peak level 99.1 %
Extraction speed 3.6 X
Track quality 100.0 %
Test CRC CB8CC54E
Copy CRC CB8CC54E
Accurately ripped (confidence 11) [D86B251D] (AR v2)
Copy OK

Track 10

Filename C:\My Documents\My FLAC\Kool Keith - Matthew (2000) [FLAC] {Funky Ass}\10 - Keith N Bumpy.wav

Peak level 96.6 %
Extraction speed 3.6 X
Track quality 100.0 %
Test CRC 01FB6A1C
Copy CRC 01FB6A1C
Accurately ripped (confidence 11) [483C25F6] (AR v2)
Copy OK

Track 11

Filename C:\My Documents\My FLAC\Kool Keith - Matthew (2000) [FLAC] {Funky Ass}\11 - The Set Up (Skit).wav

Peak level 90.5 %
Extraction speed 2.2 X
Track quality 100.0 %
Test CRC 5A68A1A9
Copy CRC 5A68A1A9
Accurately ripped (confidence 11) [BF7FCADA] (AR v2)
Copy OK

Track 12

Filename C:\My Documents\My FLAC\Kool Keith - Matthew (2000) [FLAC] {Funky Ass}\12 - Shoes n Suits.wav

Peak level 98.8 %
Extraction speed 3.5 X
Track quality 99.9 %
Test CRC 5E05A1B5
Copy CRC 5E05A1B5
Accurately ripped (confidence 11) [99ED12BA] (AR v2)
Copy OK

Track 13

Filename C:\My Documents\My FLAC\Kool Keith - Matthew (2000) [FLAC] {Funky Ass}\13 - Diamonds.wav

Peak level 96.6 %
Extraction speed 3.8 X
Track quality 99.9 %
Test CRC 4A489E4D
Copy CRC 4A489E4D
Accurately ripped (confidence 11) [2DF0ABBD] (AR v2)
Copy OK

Track 14

Filename C:\My Documents\My FLAC\Kool Keith - Matthew (2000) [FLAC] {Funky Ass}\14 - Sweet Unique Pete.wav

Peak level 98.9 %
Extraction speed 4.5 X
Track quality 100.0 %
Test CRC 0D8B4A6C
Copy CRC 0D8B4A6C
Accurately ripped (confidence 11) [6FD17CBE] (AR v2)
Copy OK

Track 15

Filename C:\My Documents\My FLAC\Kool Keith - Matthew (2000) [FLAC] {Funky Ass}\15 - Do You Masturbate (Skit).wav

Peak level 55.6 %
Extraction speed 2.4 X
Track quality 100.0 %
Test CRC A6434E0C
Copy CRC A6434E0C
Accurately ripped (confidence 11) [B09AF26A] (AR v2)
Copy OK

Track 16

Filename C:\My Documents\My FLAC\Kool Keith - Matthew (2000) [FLAC] {Funky Ass}\16 - Back Stage Passes.wav

Peak level 99.4 %
Extraction speed 4.5 X
Track quality 100.0 %
Test CRC 2EA0D6E1
Copy CRC 2EA0D6E1
Accurately ripped (confidence 11) [4FCB28B9] (AR v2)
Copy OK

Track 17

Filename C:\My Documents\My FLAC\Kool Keith - Matthew (2000) [FLAC] {Funky Ass}\17 - Mad Man Departure.wav

Peak level 98.8 %
Extraction speed 1.3 X
Track quality 100.0 %
Test CRC AF237F5E
Copy CRC AF237F5E
Accurately ripped (confidence 11) [0BE2CF68] (AR v2)
Copy OK


All tracks accurately ripped

No errors occurred

End of status report

–– CUETools DB Plugin V2.1.6

[CTDB TOCID: sltIpmzU7b3JUrZURa9Zlq_5ttA-] found
Submit result: sltIpmzU7b3JUrZURa9Zlq_5ttA- has been confirmed
Track | CTDB Status
1 | (14/14) Accurately ripped
2 | (14/14) Accurately ripped
3 | (14/14) Accurately ripped
4 | (13/14) Accurately ripped
5 | (14/14) Accurately ripped
6 | (14/14) Accurately ripped
7 | (14/14) Accurately ripped
8 | (14/14) Accurately ripped
9 | (13/14) Accurately ripped
10 | (13/14) Accurately ripped
11 | (14/14) Accurately ripped
12 | (14/14) Accurately ripped
13 | (13/14) Accurately ripped
14 | (14/14) Accurately ripped
15 | (14/14) Accurately ripped
16 | (14/14) Accurately ripped
17 | (14/14) Accurately ripped


==== Log checksum AC5BEF05189C9CB45904234E39DD98E2A5497D8A287D451E310FD77C0C7FBE07 ====


Kool Keith - Matthew (2000) {Funky Ass} **[RE-UP]**