Kasey Chambers - The Captain (1999) {Asylum}

Posted By: TestTickles
Kasey Chambers - The Captain (1999) {Asylum}

Kasey Chambers - The Captain (1999) {Asylum}
EAC Rip | FLAC with CUE and log | scans | 325 mb
MP3 CBR 320kbps | RAR | 134 mb
Genre: country, Americana

The Captain is the 1999 album by Australian country singer Kasey Chambers. This was released through Asylum Records.

Kasey Chambers - The Captain (1999) {Asylum}

01. Cry Like A Baby
02. The Captain
03. This Flower
04. You Got The Car
05. These Pines
06. Don't Talk Back
07. Southern Kind Of Life
08. Mr Baylis
09. The Hard Way
10. Last Hard Bible
11. Don't Go
12. We're All Gonna Die Someday

Exact Audio Copy V1.1 from 23. June 2015

EAC extraction logfile from 8. May 2017, 9:44

Kasey Chambers / The Captain

Used drive : TEAC DVD-ROM DV-28SW Adapter: 1 ID: 0

Read mode : Secure
Utilize accurate stream : Yes
Defeat audio cache : Yes
Make use of C2 pointers : No

Read offset correction : 6
Overread into Lead-In and Lead-Out : No
Fill up missing offset samples with silence : Yes
Delete leading and trailing silent blocks : No
Null samples used in CRC calculations : Yes
Used interface : Native Win32 interface for Win NT & 2000
Gap handling : Appended to previous track

Used output format : Internal WAV Routines
Sample format : 44.100 Hz; 16 Bit; Stereo


TOC of the extracted CD

Track | Start | Length | Start sector | End sector
––––––––––––––––––––––––––––-
1 | 0:00.32 | 4:01.00 | 32 | 18106
2 | 4:01.32 | 4:32.40 | 18107 | 38546
3 | 8:33.72 | 2:50.63 | 38547 | 51359
4 | 11:24.60 | 4:05.25 | 51360 | 69759
5 | 15:30.10 | 4:04.32 | 69760 | 88091
6 | 19:34.42 | 4:48.48 | 88092 | 109739
7 | 24:23.15 | 4:01.02 | 109740 | 127816
8 | 28:24.17 | 3:47.00 | 127817 | 144841
9 | 32:11.17 | 2:55.10 | 144842 | 157976
10 | 35:06.27 | 2:23.63 | 157977 | 168764
11 | 37:30.15 | 3:01.65 | 168765 | 182404
12 | 40:32.05 | 2:09.17 | 182405 | 192096


Track 1

Filename C:\My Documents\My FLAC\Kasey Chambers - The Captain (1999) [FLAC] {Asylum}\01 - Cry Like A Baby.wav

Pre-gap length 0:00:02.32

Peak level 89.9 %
Extraction speed 2.4 X
Track quality 99.9 %
Test CRC 9BB7FB99
Copy CRC 9BB7FB99
Accurately ripped (confidence 40) [894AFF85] (AR v2)
Copy OK

Track 2

Filename C:\My Documents\My FLAC\Kasey Chambers - The Captain (1999) [FLAC] {Asylum}\02 - The Captain.wav

Peak level 86.5 %
Extraction speed 3.2 X
Track quality 100.0 %
Test CRC 26AB9043
Copy CRC 26AB9043
Accurately ripped (confidence 41) [15084862] (AR v2)
Copy OK

Track 3

Filename C:\My Documents\My FLAC\Kasey Chambers - The Captain (1999) [FLAC] {Asylum}\03 - This Flower.wav

Peak level 86.7 %
Extraction speed 3.3 X
Track quality 100.0 %
Test CRC 48AAFA13
Copy CRC 48AAFA13
Accurately ripped (confidence 41) [70B599D5] (AR v2)
Copy OK

Track 4

Filename C:\My Documents\My FLAC\Kasey Chambers - The Captain (1999) [FLAC] {Asylum}\04 - You Got The Car.wav

Pre-gap length 0:00:01.03

Peak level 88.0 %
Extraction speed 3.1 X
Track quality 99.9 %
Test CRC AE036FEB
Copy CRC AE036FEB
Accurately ripped (confidence 41) [00F059C3] (AR v2)
Copy OK

Track 5

Filename C:\My Documents\My FLAC\Kasey Chambers - The Captain (1999) [FLAC] {Asylum}\05 - These Pines.wav

Peak level 87.1 %
Extraction speed 3.9 X
Track quality 100.0 %
Test CRC 8C7C68E4
Copy CRC 8C7C68E4
Accurately ripped (confidence 41) [DA6BDA9F] (AR v2)
Copy OK

Track 6

Filename C:\My Documents\My FLAC\Kasey Chambers - The Captain (1999) [FLAC] {Asylum}\06 - Don't Talk Back.wav

Pre-gap length 0:00:02.50

Peak level 88.9 %
Extraction speed 4.2 X
Track quality 100.0 %
Test CRC 7639914C
Copy CRC 7639914C
Accurately ripped (confidence 41) [CBCE118D] (AR v2)
Copy OK

Track 7

Filename C:\My Documents\My FLAC\Kasey Chambers - The Captain (1999) [FLAC] {Asylum}\07 - Southern Kind Of Life.wav

Pre-gap length 0:00:01.38

Peak level 87.2 %
Extraction speed 3.7 X
Track quality 99.9 %
Test CRC 759FFF45
Copy CRC 759FFF45
Accurately ripped (confidence 41) [E9F3E511] (AR v2)
Copy OK

Track 8

Filename C:\My Documents\My FLAC\Kasey Chambers - The Captain (1999) [FLAC] {Asylum}\08 - Mr Baylis.wav

Pre-gap length 0:00:02.62

Peak level 88.5 %
Extraction speed 4.4 X
Track quality 100.0 %
Test CRC 96D9D54B
Copy CRC 96D9D54B
Accurately ripped (confidence 40) [3B2525A6] (AR v2)
Copy OK

Track 9

Filename C:\My Documents\My FLAC\Kasey Chambers - The Captain (1999) [FLAC] {Asylum}\09 - The Hard Way.wav

Pre-gap length 0:00:03.67

Peak level 88.1 %
Extraction speed 4.4 X
Track quality 100.0 %
Test CRC 0B6FCB63
Copy CRC 0B6FCB63
Accurately ripped (confidence 40) [3214D001] (AR v2)
Copy OK

Track 10

Filename C:\My Documents\My FLAC\Kasey Chambers - The Captain (1999) [FLAC] {Asylum}\10 - Last Hard Bible.wav

Pre-gap length 0:00:01.25

Peak level 89.2 %
Extraction speed 4.4 X
Track quality 100.0 %
Test CRC E927336D
Copy CRC E927336D
Accurately ripped (confidence 41) [7C73F981] (AR v2)
Copy OK

Track 11

Filename C:\My Documents\My FLAC\Kasey Chambers - The Captain (1999) [FLAC] {Asylum}\11 - Don't Go.wav

Peak level 85.4 %
Extraction speed 4.7 X
Track quality 100.0 %
Test CRC 4B1FE77F
Copy CRC 4B1FE77F
Accurately ripped (confidence 41) [AD25843D] (AR v2)
Copy OK

Track 12

Filename C:\My Documents\My FLAC\Kasey Chambers - The Captain (1999) [FLAC] {Asylum}\12 - We're All Gonna Die Someday.wav

Pre-gap length 0:00:02.58

Peak level 88.6 %
Extraction speed 4.4 X
Track quality 100.0 %
Test CRC A2630952
Copy CRC A2630952
Accurately ripped (confidence 41) [A2CC1233] (AR v2)
Copy OK


All tracks accurately ripped

No errors occurred

End of status report

–– CUETools DB Plugin V2.1.6

[CTDB TOCID: qHO8aVlrQIeFsasAOTrKPQnzZ3U-] found
Submit result: qHO8aVlrQIeFsasAOTrKPQnzZ3U- has been confirmed
Track | CTDB Status
1 | (25/25) Accurately ripped
2 | (25/25) Accurately ripped
3 | (24/25) Accurately ripped, or (1/25) differs in 12 samples @00:00:30
4 | (25/25) Accurately ripped
5 | (24/25) Accurately ripped, or (1/25) differs in 13 samples @00:00:30
6 | (24/25) Accurately ripped, or (1/25) differs in 30 samples @00:00:30
7 | (25/25) Accurately ripped
8 | (24/25) Accurately ripped, or (1/25) differs in 29 samples @00:00:30
9 | (25/25) Accurately ripped
10 | (23/25) Accurately ripped, or (1/25) differs in 19 samples @00:00:30
11 | (25/25) Accurately ripped
12 | (24/25) Accurately ripped, or (1/25) differs in 37 samples @00:00:30


==== Log checksum 9B957170BE31EAA6F302138DD7BA4DA9ED0C49671B8B172F741A3FB1004B413D ====


Kasey Chambers - The Captain (1999) {Asylum}