Subcategories

Katie Bull - The Story, So Far (CD/DVD) (2011) {Cold Hill Indie}

Posted By: TestTickles
Katie Bull - The Story, So Far (CD/DVD) (2011) {Cold Hill Indie}

Katie Bull - The Story, So Far (CD/DVD) (2011) {Cold Hill Indie}
EAC Rip | FLAC with CUE and LOG | scans
DVD rip | MP4: 3546 kbps | 720 x 482 | MP3 (160 Kbps) | 19 + 9 min | English | 1.22 gb
MP3 CBR 320 kbps | RAR | 1 gb
Genre: jazz, vocal jazz

The Story, So Far is the 2011 album by New York City jazz vocalist Katie Bull. This is a CD/DVD presentation, with the DVD featuring two different videos, one described as a documentary but both are neither. This was released by Cold Hill Indie.

Katie Bull - The Story, So Far (CD/DVD) (2011) {Cold Hill Indie}

01. Which?
02. A Song For Hudson's Heart
03. For All We Know
04. Twisted
05. Half Full
06. Next Generation Doodlin'
07. Palentology
08. I Should've Noticed
09. Go Ahead
10. Topanga Canyon
11. There Will Never be Another You
12. Jack
13. Wake Up Time
14. The Fountain (Bonus Track)
15. Just Listening (Bonus Track)
16. Sad Is Beautiful (Bonus Track)
17. Undeniable Blues (Bonus Track)

VIDEO:
The Story So Far (19:28)
The Making Of… (9:07)

Exact Audio Copy V1.0 beta 6 from 9. April 2015

EAC extraction logfile from 1. July 2020, 1:00

Katie Bull / The Story So Far

Used drive : TSSTcorpDVD+-RW TS-L633C Adapter: 1 ID: 0

Read mode : Secure
Utilize accurate stream : Yes
Defeat audio cache : Yes
Make use of C2 pointers : No

Read offset correction : 6
Overread into Lead-In and Lead-Out : No
Fill up missing offset samples with silence : Yes
Delete leading and trailing silent blocks : No
Null samples used in CRC calculations : Yes
Used interface : Native Win32 interface for Win NT & 2000
Gap handling : Appended to previous track

Used output format : Internal WAV Routines
Sample format : 44.100 Hz; 16 Bit; Stereo


TOC of the extracted CD

Track | Start | Length | Start sector | End sector
––––––––––––––––––––––––––––-
1 | 0:00.00 | 4:22.45 | 0 | 19694
2 | 4:22.45 | 4:52.15 | 19695 | 41609
3 | 9:14.60 | 4:38.10 | 41610 | 62469
4 | 13:52.70 | 4:57.39 | 62470 | 84783
5 | 18:50.34 | 3:19.03 | 84784 | 99711
6 | 22:09.37 | 3:04.10 | 99712 | 113521
7 | 25:13.47 | 3:17.30 | 113522 | 128326
8 | 28:31.02 | 5:45.55 | 128327 | 154256
9 | 34:16.57 | 2:33.13 | 154257 | 165744
10 | 36:49.70 | 5:35.06 | 165745 | 190875
11 | 42:25.01 | 5:04.37 | 190876 | 213712
12 | 47:29.38 | 3:55.42 | 213713 | 231379
13 | 51:25.05 | 2:22.33 | 231380 | 242062
14 | 53:47.38 | 2:31.34 | 242063 | 253421
15 | 56:18.72 | 2:55.21 | 253422 | 266567
16 | 59:14.18 | 3:20.45 | 266568 | 281612
17 | 62:34.63 | 4:13.34 | 281613 | 300621


Track 1

Filename C:\My Documents\My FLAC\Katie Bull - The Story, So Far (CD, DVD) (2011) [FLAC] {Cold Hill Indie}\CD\01 - Which.wav

Pre-gap length 0:00:02.00

Peak level 97.7 %
Extraction speed 0.9 X
Track quality 99.9 %
Test CRC C22BC0C1
Copy CRC C22BC0C1
Accurately ripped (confidence 1) [572330E4] (AR v2)
Copy OK

Track 2

Filename C:\My Documents\My FLAC\Katie Bull - The Story, So Far (CD, DVD) (2011) [FLAC] {Cold Hill Indie}\CD\02 - A Song For Hudson's Heart.wav

Peak level 97.5 %
Extraction speed 1.1 X
Track quality 100.0 %
Test CRC 87B96530
Copy CRC 87B96530
Accurately ripped (confidence 1) [5F458644] (AR v2)
Copy OK

Track 3

Filename C:\My Documents\My FLAC\Katie Bull - The Story, So Far (CD, DVD) (2011) [FLAC] {Cold Hill Indie}\CD\03 - For All We Know.wav

Pre-gap length 0:00:02.03

Peak level 97.5 %
Extraction speed 1.1 X
Track quality 100.0 %
Test CRC 0217A635
Copy CRC 0217A635
Accurately ripped (confidence 1) [CD03F85C] (AR v2)
Copy OK

Track 4

Filename C:\My Documents\My FLAC\Katie Bull - The Story, So Far (CD, DVD) (2011) [FLAC] {Cold Hill Indie}\CD\04 - Twisted.wav

Pre-gap length 0:00:01.45

Peak level 97.6 %
Extraction speed 0.5 X
Track quality 100.0 %
Test CRC 226DEFED
Copy CRC 226DEFED
Accurately ripped (confidence 1) [79F1A40F] (AR v2)
Copy OK

Track 5

Filename C:\My Documents\My FLAC\Katie Bull - The Story, So Far (CD, DVD) (2011) [FLAC] {Cold Hill Indie}\CD\05 - Half Full.wav

Pre-gap length 0:00:01.48

Peak level 98.3 %
Extraction speed 1.3 X
Track quality 100.0 %
Test CRC C44100B2
Copy CRC C44100B2
Accurately ripped (confidence 1) [749598FB] (AR v2)
Copy OK

Track 6

Filename C:\My Documents\My FLAC\Katie Bull - The Story, So Far (CD, DVD) (2011) [FLAC] {Cold Hill Indie}\CD\06 - Next Generation Doodlin'.wav

Pre-gap length 0:00:02.13

Peak level 97.4 %
Extraction speed 1.3 X
Track quality 100.0 %
Test CRC 15AFC6BA
Copy CRC 15AFC6BA
Accurately ripped (confidence 1) [CD45E8C1] (AR v2)
Copy OK

Track 7

Filename C:\My Documents\My FLAC\Katie Bull - The Story, So Far (CD, DVD) (2011) [FLAC] {Cold Hill Indie}\CD\07 - Palentology.wav

Pre-gap length 0:00:01.33

Peak level 97.5 %
Extraction speed 1.4 X
Track quality 100.0 %
Test CRC EB1F5453
Copy CRC EB1F5453
Accurately ripped (confidence 1) [B8BD1991] (AR v2)
Copy OK

Track 8

Filename C:\My Documents\My FLAC\Katie Bull - The Story, So Far (CD, DVD) (2011) [FLAC] {Cold Hill Indie}\CD\08 - I Should've Noticed.wav

Peak level 97.5 %
Extraction speed 1.5 X
Track quality 100.0 %
Test CRC 0F49D433
Copy CRC 0F49D433
Accurately ripped (confidence 1) [EE837579] (AR v2)
Copy OK

Track 9

Filename C:\My Documents\My FLAC\Katie Bull - The Story, So Far (CD, DVD) (2011) [FLAC] {Cold Hill Indie}\CD\09 - Go Ahead.wav

Pre-gap length 0:00:01.08

Peak level 97.3 %
Extraction speed 1.4 X
Track quality 100.0 %
Test CRC A72BCBD1
Copy CRC A72BCBD1
Accurately ripped (confidence 1) [9CB58EC0] (AR v2)
Copy OK

Track 10

Filename C:\My Documents\My FLAC\Katie Bull - The Story, So Far (CD, DVD) (2011) [FLAC] {Cold Hill Indie}\CD\10 - Topanga Canyon.wav

Pre-gap length 0:00:01.04

Peak level 97.5 %
Extraction speed 0.6 X
Track quality 100.0 %
Test CRC 6172DE6A
Copy CRC 6172DE6A
Accurately ripped (confidence 1) [9F2B18E3] (AR v2)
Copy OK

Track 11

Filename C:\My Documents\My FLAC\Katie Bull - The Story, So Far (CD, DVD) (2011) [FLAC] {Cold Hill Indie}\CD\11 - There Will Never be Another You.wav

Peak level 97.6 %
Extraction speed 1.7 X
Track quality 100.0 %
Test CRC FF9C6B66
Copy CRC FF9C6B66
Accurately ripped (confidence 1) [A18FE547] (AR v2)
Copy OK

Track 12

Filename C:\My Documents\My FLAC\Katie Bull - The Story, So Far (CD, DVD) (2011) [FLAC] {Cold Hill Indie}\CD\12 - Jack.wav

Pre-gap length 0:00:01.23

Peak level 97.4 %
Extraction speed 1.7 X
Track quality 100.0 %
Test CRC C81E1A1F
Copy CRC C81E1A1F
Accurately ripped (confidence 1) [4B21CBBB] (AR v2)
Copy OK

Track 13

Filename C:\My Documents\My FLAC\Katie Bull - The Story, So Far (CD, DVD) (2011) [FLAC] {Cold Hill Indie}\CD\13 - Wake Up Time.wav

Pre-gap length 0:00:01.37

Peak level 97.6 %
Extraction speed 1.2 X
Track quality 99.9 %
Test CRC C12C04E3
Copy CRC C12C04E3
Accurately ripped (confidence 1) [29A4FA04] (AR v2)
Copy OK

Track 14

Filename C:\My Documents\My FLAC\Katie Bull - The Story, So Far (CD, DVD) (2011) [FLAC] {Cold Hill Indie}\CD\14 - The Fountain (Bonus Track).wav

Pre-gap length 0:00:07.03

Peak level 97.5 %
Extraction speed 1.6 X
Track quality 100.0 %
Test CRC EC9477B8
Copy CRC EC9477B8
Accurately ripped (confidence 1) [E0204A7D] (AR v2)
Copy OK

Track 15

Filename C:\My Documents\My FLAC\Katie Bull - The Story, So Far (CD, DVD) (2011) [FLAC] {Cold Hill Indie}\CD\15 - Just Listening (Bonus Track).wav

Peak level 97.6 %
Extraction speed 1.4 X
Track quality 99.9 %
Test CRC A9482DBB
Copy CRC A9482DBB
Accurately ripped (confidence 1) [5342544E] (AR v2)
Copy OK

Track 16

Filename C:\My Documents\My FLAC\Katie Bull - The Story, So Far (CD, DVD) (2011) [FLAC] {Cold Hill Indie}\CD\16 - Sad Is Beautiful (Bonus Track).wav

Peak level 97.5 %
Extraction speed 1.7 X
Track quality 100.0 %
Test CRC 729C744C
Copy CRC 729C744C
Accurately ripped (confidence 1) [DAEB59D2] (AR v2)
Copy OK

Track 17

Filename C:\My Documents\My FLAC\Katie Bull - The Story, So Far (CD, DVD) (2011) [FLAC] {Cold Hill Indie}\CD\17 - Undeniable Blues (Bonus Track).wav

Peak level 97.6 %
Extraction speed 0.6 X
Track quality 100.0 %
Test CRC 450072A2
Copy CRC 450072A2
Accurately ripped (confidence 1) [72774B65] (AR v2)
Copy OK


All tracks accurately ripped

No errors occurred

End of status report

–– CUETools DB Plugin V2.1.6

[CTDB TOCID: 1yZLXflVtEJlcBbo45YYXjAqHeM-] disk not present in database
Submit result: 1yZLXflVtEJlcBbo45YYXjAqHeM- has been uploaded


==== Log checksum A87BB5C3F6FB7BE14767F7B97667F8CFAAEA8224EA21B5CDE0F03E760B0EBE10 ====


General
Complete name : C:\My Documents\My FLAC\Katie Bull - The Story, So Far (2011) [FLAC] {Cold Hill Indie}\video\The Story, So Far (documentary).mp4
Format : MPEG-4
Format profile : Base Media / Version 2
Codec ID : mp42
File size : 517 MiB
Duration : 19mn 28s
Overall bit rate mode : Variable
Overall bit rate : 3 712 Kbps
Writing application : HandBrake 0.10.1 2015030800

Video
ID : 1
Format : AVC
Format/Info : Advanced Video Codec
Format profile : Main@L4
Format settings, CABAC : Yes
Format settings, ReFrames : 4 frames
Codec ID : avc1
Codec ID/Info : Advanced Video Coding
Duration : 19mn 28s
Bit rate : 3 546 Kbps
Width : 720 pixels
Height : 482 pixels
Display aspect ratio : 4:3
Frame rate mode : Constant
Frame rate : 29.970 fps
Color space : YUV
Chroma subsampling : 4:2:0
Bit depth : 8 bits
Scan type : Progressive
Bits/(Pixel*Frame) : 0.341
Stream size : 494 MiB (96%)
Writing library : x264 core 142 r2479 dd79a61
Encoding settings : cabac=1 / ref=1 / deblock=1:0:0 / analyse=0x1:0x111 / me=hex / subme=2 / psy=1 / psy_rd=1.00:0.00 / mixed_ref=0 / me_range=16 / chroma_me=1 / trellis=0 / 8x8dct=0 / cqm=0 / deadzone=21,11 / fast_pskip=1 / chroma_qp_offset=0 / threads=3 / lookahead_threads=1 / sliced_threads=0 / nr=0 / decimate=1 / interlaced=0 / bluray_compat=0 / constrained_intra=0 / bframes=3 / b_pyramid=2 / b_adapt=1 / b_bias=0 / direct=1 / weightb=1 / open_gop=0 / weightp=1 / keyint=300 / keyint_min=30 / scenecut=40 / intra_refresh=0 / rc_lookahead=10 / rc=crf / mbtree=1 / crf=20.0 / qcomp=0.60 / qpmin=0 / qpmax=69 / qpstep=4 / vbv_maxrate=20000 / vbv_bufsize=25000 / crf_max=0.0 / nal_hrd=none / filler=0 / ip_ratio=1.40 / aq=1:1.00
Color range : Limited
Color primaries : BT.601 NTSC
Transfer characteristics : BT.709
Matrix coefficients : BT.601

Audio
ID : 2
Format : AAC
Format/Info : Advanced Audio Codec
Format profile : LC
Codec ID : 40
Duration : 19mn 28s
Bit rate mode : Variable
Bit rate : 160 Kbps
Channel(s) : 2 channels
Channel positions : Front: L R
Sampling rate : 48.0 KHz
Compression mode : Lossy
Stream size : 22.3 MiB (4%)
Title : Stereo / Stereo
Language : English

Menu
ID : 3
Codec ID : text
Duration : 19mn 28s
Language : English
Bit rate mode : CBR
00:00:00.000 : Chapter 1
00:02:08.328 : Chapter 2
00:07:21.308 : Chapter 3
00:12:31.084 : Chapter 4
00:13:32.445 : Chapter 5
00:15:58.124 : Chapter 6
00:17:16.335 : Chapter 7








General
Complete name : C:\My Documents\My FLAC\Katie Bull - The Story, So Far (2011) [FLAC] {Cold Hill Indie}\video\The Making Of….mp4
Format : MPEG-4
Format profile : Base Media / Version 2
Codec ID : mp42
File size : 243 MiB
Duration : 9mn 7s
Overall bit rate mode : Variable
Overall bit rate : 3 717 Kbps
Writing application : HandBrake 0.10.1 2015030800

Video
ID : 1
Format : AVC
Format/Info : Advanced Video Codec
Format profile : Main@L4
Format settings, CABAC : Yes
Format settings, ReFrames : 4 frames
Codec ID : avc1
Codec ID/Info : Advanced Video Coding
Duration : 9mn 7s
Bit rate : 3 550 Kbps
Width : 720 pixels
Height : 482 pixels
Display aspect ratio : 4:3
Frame rate mode : Constant
Frame rate : 29.970 fps
Color space : YUV
Chroma subsampling : 4:2:0
Bit depth : 8 bits
Scan type : Progressive
Bits/(Pixel*Frame) : 0.341
Stream size : 232 MiB (96%)
Writing library : x264 core 142 r2479 dd79a61
Encoding settings : cabac=1 / ref=1 / deblock=1:0:0 / analyse=0x1:0x111 / me=hex / subme=2 / psy=1 / psy_rd=1.00:0.00 / mixed_ref=0 / me_range=16 / chroma_me=1 / trellis=0 / 8x8dct=0 / cqm=0 / deadzone=21,11 / fast_pskip=1 / chroma_qp_offset=0 / threads=3 / lookahead_threads=1 / sliced_threads=0 / nr=0 / decimate=1 / interlaced=0 / bluray_compat=0 / constrained_intra=0 / bframes=3 / b_pyramid=2 / b_adapt=1 / b_bias=0 / direct=1 / weightb=1 / open_gop=0 / weightp=1 / keyint=300 / keyint_min=30 / scenecut=40 / intra_refresh=0 / rc_lookahead=10 / rc=crf / mbtree=1 / crf=20.0 / qcomp=0.60 / qpmin=0 / qpmax=69 / qpstep=4 / vbv_maxrate=20000 / vbv_bufsize=25000 / crf_max=0.0 / nal_hrd=none / filler=0 / ip_ratio=1.40 / aq=1:1.00
Color range : Limited
Color primaries : BT.601 NTSC
Transfer characteristics : BT.709
Matrix coefficients : BT.601

Audio
ID : 2
Format : AAC
Format/Info : Advanced Audio Codec
Format profile : LC
Codec ID : 40
Duration : 9mn 7s
Bit rate mode : Variable
Bit rate : 160 Kbps
Channel(s) : 2 channels
Channel positions : Front: L R
Sampling rate : 48.0 KHz
Compression mode : Lossy
Stream size : 10.5 MiB (4%)
Title : Stereo / Stereo
Language : English

Menu
ID : 3
Codec ID : text
Duration : 9mn 7s
Language : English
00:00:00.000 : Chapter 1


Katie Bull - The Story, So Far (CD/DVD) (2011) {Cold Hill Indie}