Subcategories

Klaatu - Two Classic Albums From Klaatu (1999) {Collectors' Choice Music}

Posted By: TestTickles
Klaatu - Two Classic Albums From Klaatu (1999) {Collectors' Choice Music}

Klaatu - Two Classic Albums From Klaatu (1999) {Collectors' Choice Music}
EAC Rip | FLAC with CUE and log | scans | 496 mb
MP3 CBR 320kbps | RAR | 187 mb
Genre: progressive rock, pop rock, classic rock

Two Classic Albums From Klaatu is a 1999 compilation CD by the group Klaatu. it features the group's first two albums in full. This was released by Collectors' Choice Music.
Here are the two complete, original 1977 releases on one CD. The two albums that had people convinced this band was the second coming of The Beatles. Of course they weren't, but this Canadian band's brand of inventive, arty pop remains one of the freshest examples of the day.

Klaatu - Two Classic Albums From Klaatu (1999) {Collectors' Choice Music}

3:47 E.S.T. (1976)
1. Calling Occupants Of Interplanetary Craft (7:14)
2. California Jam (3:01)
3. Anus Of Uranus (3:16)
4. Sub Rosa Subway (4:36)
5. True Life Hero (3:25)
6. Doctor Marvello (3:37)
7. Sir bodsworth Rugglesby 3 (3:22)
8. Little Neutrino (8:25)

Hope (1977)
9. We're Off You Know (4:00)
10. Madman (2:36)
11. Around The Universe In 80 days(4:53)
12. Long live Politzania (9:05)
13. The Loneliest Of Creatures(3:41)
14. Prelude (5:43)
15. So Said The Lighthouse Leeper (5:48)
16. Hope (3:48)

EAC extraction logfile from 17. May 2006, 2:22 for CD
Johnny Griffin / J.G.

Used drive : LITE-ON DVDRW SOHW-1633S Adapter: 0 ID: 0
Read mode : Secure with NO C2, accurate stream, disable cache
Read offset correction : 12
Overread into Lead-In and Lead-Out : No

Used output format : Internal WAV Routines
44.100 Hz; 16 Bit; Stereo

Other options :
Fill up missing offset samples with silence : Yes
Delete leading and trailing silent blocks : No
Installed external ASPI interface


Track 1
Filename C:\FLAC\Klaatu - Two Classic Albums From Klaatu (1999) [FLAC] {Collectors' Choice Music}\01 - Calling Occupants Of Interplanetary Craft.wav

Pre-gap length 0:00:02.00

Peak level 97.2 %
Track quality 100.0 %
Test CRC A0FF4A5F
Copy CRC A0FF4A5F
Copy OK

Track 2
Filename C:\FLAC\Klaatu - Two Classic Albums From Klaatu (1999) [FLAC] {Collectors' Choice Music}\02 - California Jam.wav

Peak level 97.2 %
Track quality 100.0 %
Test CRC DFDAE553
Copy CRC DFDAE553
Copy OK

Track 3
Filename C:\FLAC\Klaatu - Two Classic Albums From Klaatu (1999) [FLAC] {Collectors' Choice Music}\03 - Anus Of Uranus.wav

Pre-gap length 0:00:01.15

Peak level 97.2 %
Track quality 100.0 %
Test CRC 12006CFD
Copy CRC 12006CFD
Copy OK

Track 4
Filename C:\FLAC\Klaatu - Two Classic Albums From Klaatu (1999) [FLAC] {Collectors' Choice Music}\04 - Sub-Rosa Subway.wav

Pre-gap length 0:00:01.25

Peak level 97.2 %
Track quality 100.0 %
Test CRC 962156A6
Copy CRC 962156A6
Copy OK

Track 5
Filename C:\FLAC\Klaatu - Two Classic Albums From Klaatu (1999) [FLAC] {Collectors' Choice Music}\05 - True Life Hero.wav

Pre-gap length 0:00:01.20

Peak level 97.2 %
Track quality 100.0 %
Test CRC 141A573B
Copy CRC 141A573B
Copy OK

Track 6
Filename C:\FLAC\Klaatu - Two Classic Albums From Klaatu (1999) [FLAC] {Collectors' Choice Music}\06 - Doctor Marvello.wav

Peak level 97.2 %
Track quality 100.0 %
Test CRC 47C4F218
Copy CRC 47C4F218
Copy OK

Track 7
Filename C:\FLAC\Klaatu - Two Classic Albums From Klaatu (1999) [FLAC] {Collectors' Choice Music}\07 - Sir Bodsworth Rugglesby III.wav

Pre-gap length 0:00:01.57

Peak level 97.2 %
Track quality 100.0 %
Test CRC CC0F7F85
Copy CRC CC0F7F85
Copy OK

Track 8
Filename C:\FLAC\Klaatu - Two Classic Albums From Klaatu (1999) [FLAC] {Collectors' Choice Music}\08 - Little Neutrino.wav

Pre-gap length 0:00:05.32

Peak level 97.2 %
Track quality 99.9 %
Test CRC AB9C5690
Copy CRC AB9C5690
Copy OK

Track 9
Filename C:\FLAC\Klaatu - Two Classic Albums From Klaatu (1999) [FLAC] {Collectors' Choice Music}\09 - We're Off You Know.wav

Peak level 97.2 %
Track quality 100.0 %
Test CRC E8ADE377
Copy CRC E8ADE377
Copy OK

Track 10
Filename C:\FLAC\Klaatu - Two Classic Albums From Klaatu (1999) [FLAC] {Collectors' Choice Music}\10 - Madman.wav

Peak level 97.2 %
Track quality 100.0 %
Test CRC F56EF6A9
Copy CRC F56EF6A9
Copy OK

Track 11
Filename C:\FLAC\Klaatu - Two Classic Albums From Klaatu (1999) [FLAC] {Collectors' Choice Music}\11 - Around The Universe In Eighty Days.wav

Pre-gap length 0:00:01.05

Peak level 97.2 %
Track quality 99.9 %
Test CRC 5C460C54
Copy CRC 5C460C54
Copy OK

Track 12
Filename C:\FLAC\Klaatu - Two Classic Albums From Klaatu (1999) [FLAC] {Collectors' Choice Music}\12 - Long Live Politzania.wav

Pre-gap length 0:00:02.17

Peak level 97.2 %
Track quality 100.0 %
Test CRC 17704E63
Copy CRC 17704E63
Copy OK

Track 13
Filename C:\FLAC\Klaatu - Two Classic Albums From Klaatu (1999) [FLAC] {Collectors' Choice Music}\13 - The Loneliest Of Creatures.wav

Peak level 97.2 %
Track quality 100.0 %
Test CRC 462DCC37
Copy CRC 462DCC37
Copy OK

Track 14
Filename C:\FLAC\Klaatu - Two Classic Albums From Klaatu (1999) [FLAC] {Collectors' Choice Music}\14 - Prelude.wav

Peak level 97.2 %
Track quality 100.0 %
Test CRC 4421831A
Copy CRC 4421831A
Copy OK

Track 15
Filename C:\FLAC\Klaatu - Two Classic Albums From Klaatu (1999) [FLAC] {Collectors' Choice Music}\15 - So Said The Lighthouse Keeper.wav

Peak level 97.2 %
Track quality 100.0 %
Test CRC 594DA89B
Copy CRC 594DA89B
Copy OK

Track 16
Filename C:\FLAC\Klaatu - Two Classic Albums From Klaatu (1999) [FLAC] {Collectors' Choice Music}\16 - Hope.wav

Peak level 97.2 %
Track quality 100.0 %
Test CRC 8C700AF9
Copy CRC 8C700AF9
Copy OK

No errors occured


End of status report


Klaatu - Two Classic Albums From Klaatu (1999) {Collectors' Choice Music}


Check out other titles in my blog.