Subcategories

Knowlton Bourne - Songs From Motel 43 (2015) {Misra} **[RE-UP]**

Posted By: TestTickles
Knowlton Bourne - Songs From Motel 43 (2015) {Misra} **[RE-UP]**

Knowlton Bourne - Songs From Motel 43 (2015) {Misra}
EAC Rip | FLAC with CUE and log | scans | 236 mb
MP3 CBR 320kbps | RAR | 84 mb
Genre: indie rock, alternative, folk, Americana

Songs From Motel 43 is the 2015 CD by Knowlton Bourne. He is an alternative music artist. The label responsible for this gem is Misra.
On his debut album Songs from Motel 43 (Misra Records), the 23 year old constantly mulls over the bottomless threat of a “long way down.” He tackles this fear by hitting the same lonely highway taken by many a songwriter before him.

While the nature of his journey evokes country, elements of indie rock and ambient music cast a looming psychedelic backdrop against his late night escape.

“I Can’t Tell/Run” expertly blends these two influences together. “It’s a long way down/and I’ve been feeling out/out of it,” Bourne sings on the song’s first half over rich harmonica and guitar. Later, the track bleeds into a humming soundscape, with the same harmonica transformed into cosmic synths.

On first single “Hangin’ Around,” Red Red Meat style guitar chug soundtracks the moment where Bourne first describes feeling mired in idleness.The accompanying video shows the singer despondently shuffling from one activity to another, occasionally eyeing the camera with a deadpan stare.

The title track features an alien organ fluttering gently over a cycling guitar melody. Bourne is alone on an ever-stretching road, fighting sleep when he croaks,“Oh the world goes around/but I don’t want to be afraid.”

Finally ,the denouement arrives on “The River (For Nels).” The song is the standout on the record, with a twinkling arrangement Hiss Golden Messenger would sound comfortable picking over. Here, a newly optimistic Bourne begins to unpack all the findings of his existential road trip.

Wherever this young thinker plots his next course, it’ll be well worth it to hitch a ride.

Knowlton Bourne - Songs From Motel 43 (2015) {Misra} **[RE-UP]**

1. Summer Sun
2. Hangin' Around
3. I Can't Tell - Run
4. Done Movin' On
5. Greyhound
6. Motel 43
7. Gallup, New Mexico
8. The River (For Nels)
9. Glow

Exact Audio Copy V1.1 from 23. June 2015

EAC extraction logfile from 11. December 2015, 19:37

Knowlton Bourne / Songs From Motel 43

Used drive : TEAC DVD-ROM DV-28SW Adapter: 1 ID: 0

Read mode : Secure
Utilize accurate stream : Yes
Defeat audio cache : Yes
Make use of C2 pointers : No

Read offset correction : 6
Overread into Lead-In and Lead-Out : No
Fill up missing offset samples with silence : Yes
Delete leading and trailing silent blocks : No
Null samples used in CRC calculations : Yes
Used interface : Native Win32 interface for Win NT & 2000
Gap handling : Left out

Used output format : Internal WAV Routines
Sample format : 44.100 Hz; 16 Bit; Stereo


TOC of the extracted CD

Track | Start | Length | Start sector | End sector
––––––––––––––––––––––––––––-
1 | 0:00.00 | 4:34.35 | 0 | 20584
2 | 4:34.35 | 4:16.35 | 20585 | 39819
3 | 8:50.70 | 6:52.18 | 39820 | 70737
4 | 15:43.13 | 3:22.22 | 70738 | 85909
5 | 19:05.35 | 6:01.37 | 85910 | 113021
6 | 25:06.72 | 3:26.59 | 113022 | 128530
7 | 28:33.56 | 1:53.14 | 128531 | 137019
8 | 30:26.70 | 4:19.19 | 137020 | 156463
9 | 34:46.14 | 4:13.13 | 156464 | 175451


Track 1

Filename C:\My Documents\My FLAC\Knowlton Bourne - Songs From Motel 43 (2015) [FLAC]\01 - Summer Sun.wav

Pre-gap length 0:00:02.00

Peak level 98.9 %
Extraction speed 2.9 X
Track quality 100.0 %
Test CRC 5B3DB1E2
Copy CRC 5B3DB1E2
Track not present in AccurateRip database
Copy OK

Track 2

Filename C:\My Documents\My FLAC\Knowlton Bourne - Songs From Motel 43 (2015) [FLAC]\02 - Hangin' Around.wav

Peak level 99.0 %
Extraction speed 3.2 X
Track quality 100.0 %
Test CRC A8B135E0
Copy CRC A8B135E0
Track not present in AccurateRip database
Copy OK

Track 3

Filename C:\My Documents\My FLAC\Knowlton Bourne - Songs From Motel 43 (2015) [FLAC]\03 - I Can't Tell - Run.wav

Peak level 99.4 %
Extraction speed 3.7 X
Track quality 100.0 %
Test CRC E777BDF8
Copy CRC E777BDF8
Track not present in AccurateRip database
Copy OK

Track 4

Filename C:\My Documents\My FLAC\Knowlton Bourne - Songs From Motel 43 (2015) [FLAC]\04 - Done Movin' On.wav

Peak level 100.0 %
Extraction speed 3.7 X
Track quality 100.0 %
Test CRC 571B0EBC
Copy CRC 571B0EBC
Track not present in AccurateRip database
Copy OK

Track 5

Filename C:\My Documents\My FLAC\Knowlton Bourne - Songs From Motel 43 (2015) [FLAC]\05 - Greyhound.wav

Peak level 99.6 %
Extraction speed 4.2 X
Track quality 100.0 %
Test CRC 7B2F4A7C
Copy CRC 7B2F4A7C
Track not present in AccurateRip database
Copy OK

Track 6

Filename C:\My Documents\My FLAC\Knowlton Bourne - Songs From Motel 43 (2015) [FLAC]\06 - Motel 43.wav

Peak level 99.5 %
Extraction speed 3.4 X
Track quality 99.9 %
Test CRC 785C5006
Copy CRC 785C5006
Track not present in AccurateRip database
Copy OK

Track 7

Filename C:\My Documents\My FLAC\Knowlton Bourne - Songs From Motel 43 (2015) [FLAC]\07 - Gallup, New Mexico.wav

Peak level 98.8 %
Extraction speed 2.8 X
Track quality 99.9 %
Test CRC 776E19BD
Copy CRC 776E19BD
Track not present in AccurateRip database
Copy OK

Track 8

Filename C:\My Documents\My FLAC\Knowlton Bourne - Songs From Motel 43 (2015) [FLAC]\08 - The River (For Nels).wav

Peak level 98.9 %
Extraction speed 4.6 X
Track quality 100.0 %
Test CRC 5EDC83D3
Copy CRC 5EDC83D3
Track not present in AccurateRip database
Copy OK

Track 9

Filename C:\My Documents\My FLAC\Knowlton Bourne - Songs From Motel 43 (2015) [FLAC]\09 - Glow.wav

Peak level 98.8 %
Extraction speed 4.7 X
Track quality 100.0 %
Test CRC C967CAE8
Copy CRC C967CAE8
Track not present in AccurateRip database
Copy OK


None of the tracks are present in the AccurateRip database

No errors occurred

End of status report

–– CUETools DB Plugin V2.1.6

[CTDB TOCID: tlQoMeXMkCF9GV5KOSCzzqdV5YM-] disk not present in database
Submit result: tlQoMeXMkCF9GV5KOSCzzqdV5YM- has been uploaded


==== Log checksum 2041A862CC13599D5BD9DE5C3A244694145BC3C715A42D01213E91BC276A30B1 ====


Knowlton Bourne - Songs From Motel 43 (2015) {Misra} **[RE-UP]**