Subcategories

KPM (ex Eloy) - Run For Cover (1983) (Limited Edition)

Posted By: uff
KPM (ex Eloy) - Run For Cover (1983) (Limited Edition)

KPM (ex Eloy) - Run For Cover (1983) (Limited Edition)
Rock | 1cd | EAC Rip | Flac + Cue + Log | covers
Replicator SPV 0846-0162 | rel: 1997 | 390Mb

Rare hard to find CD soloalbum by KPM Klaus Peter Matziol, feat. Hannes Arkona, Hannes Folberth, all ex Eloy. Limited re-release with bonus tracks, 350 copies.

Track listing
01. signals have changed (3:44)
02. run for cover (3:48)
03. break of ice (3:11)
04. welcome home (4:07)
05. between the lines (2:33)
06. touch and go (3:37)
07. pretty lies (3:53)
08. more than it seems (4:18)
09. chasing clouds (4:34)
10. bucket of lies (4:18)
11. can't help hurting you (4:54)
12. freese (3:13)
13. friend of mine (2:41)
~ (48:51)


Exact Audio Copy V1.0 beta 3 from 29. August 2011

Отчёт EAC об извлечении, выполненном 22. марта 2014, 13:46

K.P.M. / Run For Cover

Дисковод: hp DVD-RAM UJ8B1 Adapter: 0 ID: 0

Режим чтения : Достоверность
Использование точного потока : Да
Отключение кэша аудио : Да
Использование указателей C2 : Нет

Коррекция смещения при чтении : 6
Способность читать области Lead-in и Lead-out : Нет
Заполнение пропущенных сэмплов тишиной : Да
Удаление блоков с тишиной в начале и конце : Нет
При вычислениях CRC использовались нулевые сэмплы : Да
Интерфейс : Встроенный Win32-интерфейс для Win NT/2000

Выходной формат : Пользовательский кодировщик
Выбранный битрейт : 128 kBit/s
Качество : Высокий
Добавление ID3-тега : Нет
Утилита сжатия : C:\Program Files (x86)\Exact Audio Copy\Flac\flac.exe
Дополнительные параметры : -V -8 -T "Date=%year%" -T "Genre=%genre%" %source%


TOC извлечённого CD

Трек | Старт | Длительность | Начальный сектор | Конечный сектор
––––––––––––––––––––––––––––––––––-
1 | 0:00.00 | 3:44.35 | 0 | 16834
2 | 3:44.35 | 3:48.06 | 16835 | 33940
3 | 7:32.41 | 3:10.58 | 33941 | 48248
4 | 10:43.24 | 4:06.38 | 48249 | 66736
5 | 14:49.62 | 2:33.22 | 66737 | 78233
6 | 17:23.09 | 3:36.55 | 78234 | 94488
7 | 20:59.64 | 3:52.50 | 94489 | 111938
8 | 24:52.39 | 4:18.04 | 111939 | 131292
9 | 29:10.43 | 4:34.06 | 131293 | 151848
10 | 33:44.49 | 4:18.25 | 151849 | 171223
11 | 38:02.74 | 4:54.32 | 171224 | 193305
12 | 42:57.31 | 3:12.67 | 193306 | 207772
13 | 46:10.23 | 2:40.48 | 207773 | 219820


Характеристики диапазона извлечения и сообщения об ошибках

Выбранный диапазон

Имя файла E:\РАЗДАЧИ\Папки\K.P.M. - Run For Cover (Flac}\K.P.M. - Run For Cover.wav

Пиковый уровень 99.3 %
Скорость извлечения 4.1 X
Качество диапазона 100.0 %
CRC теста C8528413
CRC копии C8528413
Копирование… OK

Ошибок не произошло


AccurateRip: сводка

Трек 1 отсутствует в базе данных
Трек 2 отсутствует в базе данных
Трек 3 отсутствует в базе данных
Трек 4 отсутствует в базе данных
Трек 5 отсутствует в базе данных
Трек 6 отсутствует в базе данных
Трек 7 отсутствует в базе данных
Трек 8 отсутствует в базе данных
Трек 9 отсутствует в базе данных
Трек 10 отсутствует в базе данных
Трек 11 отсутствует в базе данных
Трек 12 отсутствует в базе данных
Трек 13 отсутствует в базе данных

Ни одного трека нет в базе AccurateRip

Конец отчёта

==== Контрольная сумма отчёта 7B4EE64C8BCAA8DF617352DAFEDC42DED7145E2658B1090A14B2DDA869685778 ====



[CUETools log; Date: 2016.01.05. 15:29:51; Version: 2.1.5]
[CTDB TOCID: rxiKOckHoy.TCSqbzDIStKtYRro-] found.
Track | CTDB Status
1 | (1/1) Accurately ripped
2 | (1/1) Accurately ripped
3 | (1/1) Accurately ripped
4 | (1/1) Accurately ripped
5 | (1/1) Accurately ripped
6 | (1/1) Accurately ripped
7 | (1/1) Accurately ripped
8 | (1/1) Accurately ripped
9 | (1/1) Accurately ripped
10 | (1/1) Accurately ripped
11 | (1/1) Accurately ripped
12 | (1/1) Accurately ripped
13 | (1/1) Accurately ripped
[AccurateRip ID: 001747ba-00ea8850-b20b720d] disk not present in database.

Track Peak [ CRC32 ] [W/O NULL] [ LOG ]
– 99,3 [C8528413] [850A4C18] CRC32
01 98,8 [8A955B78] [54953707]
02 98,8 [765CF1DE] [13228486]
03 98,6 [F720CFC4] [2C0B2DA6]
04 99,1 [21F978DB] [3A396DB4]
05 99,1 [937ABBC9] [EFB080BA]
06 98,9 [7C919D33] [C16D4A5B]
07 98,9 [1917C08B] [797DA94C]
08 98,4 [F50F6329] [070D4C3E]
09 99,3 [EC72F0B4] [4E2D4B15]
10 97,5 [6E8B3D62] [AB50ACC7]
11 97,0 [1D4F3B7E] [D29BEC6F]
12 95,9 [2FE5DCDF] [C22FBD3F]
13 96,4 [8003D19D] [689473BB]


Thx to eloychik
Oboom

Yunfile

password: asd