Kaipa Da Capo - Darskapens Monotoni (2016)

Posted By: gribovar
Kaipa Da Capo - Darskapens Monotoni (2016)

Kaipa Da Capo - Dårskapens Monotoni (2016)
EAC Rip | FLAC (image+.cue+log) - 458 MB | MP3 CBR 320 kbps (LAME 3.93) - 168 MB | Covers (7 MB) included
Genre: Progressive Rock | RAR 3% Rec. | Label: Foxtrot Records (FOX CD 032)

In 2014, original Kaipa members Roine Stolt, Ingemar Bergman (drums) and Tomas Eriksson (Bass) re-grouped under the name Kaipa Da Capo to play the old music from the first three albums as well as brand new music. To complete the team they called Mikael Stolt (vocals, guitar), brother of Roine, and Max Lorentz (keyboards). After a series of concerts in 2015 the group started the recording of a new album in June 2016. The album is titled "Dårskapens Monotoni" (Folly Monotony, in a literal translation) and will be followed by an extended European and Scandinavian tour in the autumn. The music is in the traditional Kaipa sound with songs sung in Swedish.

Tracklist:
01. Dårskapens Monotoni
02. När Jag Var En Pojk
03. Vi Lever Här
04. Det Tysta Guldet
05. Spår Av Vår Tid
06. Tonerna
07. Monoliten

Total time: 01:08:18

Exact Audio Copy V1.3 from 2. September 2016

EAC extraction logfile from 20. November 2016, 18:21

Kaipa Da Capo / Darskapens Monotoni

Used drive : HL-DT-STBD-RE WH16NS40 Adapter: 1 ID: 0

Read mode : Secure
Utilize accurate stream : Yes
Defeat audio cache : Yes
Make use of C2 pointers : No

Read offset correction : 6
Overread into Lead-In and Lead-Out : No
Fill up missing offset samples with silence : Yes
Delete leading and trailing silent blocks : No
Null samples used in CRC calculations : Yes
Used interface : Native Win32 interface for Win NT & 2000

Used output format : User Defined Encoder
Selected bitrate : 896 kBit/s
Quality : High
Add ID3 tag : No
Command line compressor : flac.exe
Additional command line options : -V -8 -T "Date=%year%" -T "Genre=%genre%" %source%


TOC of the extracted CD

Track | Start | Length | Start sector | End sector
––––––––––––––––––––––––––––-
1 | 0:00.00 | 10:31.42 | 0 | 47366
2 | 10:31.42 | 10:41.18 | 47367 | 95459
3 | 21:12.60 | 6:20.54 | 95460 | 124013
4 | 27:33.39 | 10:20.18 | 124014 | 170531
5 | 37:53.57 | 5:42.57 | 170532 | 196238
6 | 43:36.39 | 17:20.11 | 196239 | 274249
7 | 60:56.50 | 7:21.02 | 274250 | 307326


Range status and errors

Selected range

Filename E:\Kaipa Da Capo - Darskapens Monotoni.wav

Peak level 100.0 %
Extraction speed 4.9 X
Range quality 100.0 %
Test CRC E286E335
Copy CRC E286E335
Copy OK

No errors occurred


AccurateRip summary

Track 1 not present in database
Track 2 not present in database
Track 3 not present in database
Track 4 not present in database
Track 5 not present in database
Track 6 not present in database
Track 7 not present in database

None of the tracks are present in the AccurateRip database

End of status report

–– CUETools DB Plugin V2.1.6

[CTDB TOCID: DlWpxKQdyUYSDi1FK6I8bjYiI8U-] found
Submit result: already submitted
Track | CTDB Status
1 | (8/8) Accurately ripped
2 | (8/8) Accurately ripped
3 | (8/8) Accurately ripped
4 | (8/8) Accurately ripped
5 | (8/8) Accurately ripped
6 | (8/8) Accurately ripped
7 | (8/8) Accurately ripped


==== Log checksum 5478B67F91E43EB0D91331DE101FB7447315D5FE1776DE4E28A228F49CF2ABE3 ====

[CUETools log; Date: 21.11.2016 5:13:52; Version: 2.1.4]
[CTDB TOCID: DlWpxKQdyUYSDi1FK6I8bjYiI8U-] found.
Track | CTDB Status
1 | (8/8) Accurately ripped
2 | (8/8) Accurately ripped
3 | (8/8) Accurately ripped
4 | (8/8) Accurately ripped
5 | (8/8) Accurately ripped
6 | (8/8) Accurately ripped
7 | (8/8) Accurately ripped
[AccurateRip ID: 00128ad5-006f2b7f-64100107] disk not present in database.

Track Peak [ CRC32 ] [W/O NULL] [ LOG ]
– 99,9 [E286E335] [2F503533] CRC32
01 95,4 [7653CE03] [B9E2D827]
02 91,1 [B484DF1C] [259E6538]
03 98,8 [53CF165B] [5C7314E9]
04 96,6 [247981B8] [ACD25F72]
05 94,4 [6643EFA8] [882EE632]
06 99,9 [6C7777F1] [333A2AF9]
07 95,4 [0074EBA9] [F62FFF62]

Thanks to the_gift

See also:
Kaipa - The Decca Years 1975-1978 [5CD Box Set] (2005)
Kaipa - 2 Studio Albums (1980-1982) [Reissue 2015]
Kaipa - Angling Feelings (2007)

LOSSLESS:
Nitroflare.com
_______________

MP3 320 kbps:
Nitroflare.com

LOSSLESS:
Rapidgator.net
_______________

MP3 320 kbps:
Rapidgator.net