Subcategories

Kamchatka - Long Road Made Of Gold (2015)

Posted By: apocalipsys2014
Kamchatka - Long Road Made Of Gold (2015)

Kamchatka - Long Road Made Of Gold (2015)
Year & Label: 2015, Despotz Records | CD#: DZCD050
Flac (image) | MP3 CBR 320 Kbps | Artwork (JPG, 300 dpi) | File-hosts: Nitroflare.com
Hard Rock/Blues Rock/Stoner | FLAC: 300 MB | Artwork: 20 MB | MP3: 100 MB | 5% WinRAR Recovery

EAC Secure-rip with LOG+CUE+COVERS | Source: torrents

Kamchatka haven’t lost their tongue-in-cheek self-awareness. On the newest addition to their discography, the Varberg, Sweden trio immediately advertise their brand of southern rock with a mountain-inspired banjo riff. Of course, it would be doing Andersson and company a disservice to write Kamchatka off as being simply another southern rock band; Kamchatka’s music has always smacked of influences leaning a little to the left (hell, Kamchatka was conceived in the afterglow of a Jimi Hendrix tribute show featuring all three current members), and when the banjo returns partway through the record’s opening cut “Take Me Back Home,” it’s in the middle of a fantastic breakdown that features slamming power chords in a progression that sounds a little closer to Led Zeppelin than it does ZZ Top. Where Kamchatka’s last release, The Search Goes On, focused on clever and quirky delivery, Long Road Made of Gold is a little more straightforward and driving. Tobias Strandvik’s drumming doesn’t have as many opportunities to shine on this one, but when his characteristic bursts of snare do show up it’s a little bit sweeter. Likewise, Andersson isn’t quite as frantic on the guitar as last time, often favouring thick, powerful riffs over the jangly sounds of The Search Goes On. Heavy, muted power chords are a staple on Long Road Made of Gold, and this often gives Andersson’s vocal melodies a chance to stand out, especially where the melodies are a little unexpected (like on the post-punk inspired verses of “Human Dynamo).” This isn’t to say that Kamchatka don’t indulge in being a little more conventional – one of the record’s stand-outs, “Long Road,” pairs Strandvik’s rumbling percussion with Andersson’s slide guitar in an effort to make you remember what heat stroke feels like, and the slow, heavy dirge of “Who’s to Blame” works as a much-needed head-rocking centerpiece. Kamchatka have developed a characteristic aesthetic throughout their career, but they’ve always given themselves enough wiggle room to be able to offer fresh, interesting material. Long Road Made of Gold carries on this tradition by sounding decidedly like Kamchatka without uncomfortably close to previous material.

bluesrockreview.com
Musicians:

Vocals, guitars : Thomas “Juneor” Andersson
Bass, vocals : Per Wiberg
Drums : Tobias Strandvik

Produced by Kamchatka
Recorded by Tobias Strondvik at Kamchatka Shelter
Mixed and mastered by Russ Russell at The Red Shed

Track List:

01. Take Me Back Home [4:47]
02. Get Your Game On [3:31]
03. Made of Gold [4:11]
04. Human Dynamo [3:07]
05. Rain [3:57]
06. Who's to Blame [4:25]
07. Mirror [3:59]
08. Slowly Drifting Away [4:07]
09. Long Road [4:44]
10. To You [4:55]

Exact Audio Copy V1.0 beta 3 from 29. August 2011

EAC extraction logfile from 11. June 2015, 20:05

Kamchatka / Long Road Made Of Gold

Used drive : PLEXTOR BD-R PX-B940SA Adapter: 5 ID: 0

Read mode : Secure
Utilize accurate stream : Yes
Defeat audio cache : Yes
Make use of C2 pointers : No

Read offset correction : 667
Overread into Lead-In and Lead-Out : No
Fill up missing offset samples with silence : Yes
Delete leading and trailing silent blocks : No
Null samples used in CRC calculations : Yes
Used interface : Installed external ASPI interface

Used output format : User Defined Encoder
Selected bitrate : 128 kBit/s
Quality : High
Add ID3 tag : Yes
Command line compressor : G:\Program Files (x86)\Exact Audio Copy\Flac\flac.exe
Additional command line options : -V -8 -T "Date=%year%" -T "Genre=%genre%" %source%


TOC of the extracted CD

Track | Start | Length | Start sector | End sector
––––––––––––––––––––––––––––-
1 | 0:00.00 | 4:47.30 | 0 | 21554
2 | 4:47.30 | 3:30.49 | 21555 | 37353
3 | 8:18.04 | 4:11.03 | 37354 | 56181
4 | 12:29.07 | 3:07.07 | 56182 | 70213
5 | 15:36.14 | 3:56.73 | 70214 | 87986
6 | 19:33.12 | 4:24.51 | 87987 | 107837
7 | 23:57.63 | 3:59.16 | 107838 | 125778
8 | 27:57.04 | 4:07.37 | 125779 | 144340
9 | 32:04.41 | 4:44.16 | 144341 | 165656
10 | 36:48.57 | 4:54.68 | 165657 | 187774


Range status and errors

Selected range

Filename D:\MUSIC\Kamchatka - Long Road Made Of Gold.wav

Peak level 98.6 %
Extraction speed 4.3 X
Range quality 99.9 %
Test CRC C4B828E8
Copy CRC C4B828E8
Copy OK

No errors occurred


AccurateRip summary

Track 1 not present in database
Track 2 not present in database
Track 3 not present in database
Track 4 not present in database
Track 5 not present in database
Track 6 not present in database
Track 7 not present in database
Track 8 not present in database
Track 9 not present in database
Track 10 not present in database

None of the tracks are present in the AccurateRip database

End of status report

==== Log checksum 93CB3457B573EEF34D26BA857F4B1D13FEA3920C41876E552206B84E8D5B16F6 ====

Not my rip, not my scan-job. Thx very much to the original uploader mart0372!
5% WinRar Recovery Record for all files.
Try before you might buy. Support the artists you like and buy their stuff whenever you can afford it.
FLAC, image + atrwork or mp3 at Nitroflare.com:
FLAC+Artwork | Mp3 320 kbps