Tags
Language
Tags

Karin Kei Nagano, Cecilia String Quartet - Mozart: Piano Concertos Nos. 12 & 13 (2014)

Posted By: tirexiss
Karin Kei Nagano, Cecilia String Quartet - Mozart: Piano Concertos Nos. 12 & 13 (2014)

Karin Kei Nagano, Cecilia String Quartet - Mozart: Piano Concertos Nos. 12 & 13 (2014)
EAC | FLAC (image+.cue, log) | Covers Included | 52:12 | 214 MB
Genre: Classical | Label: Analekta | Catalog: AN28765

Mozart did, it's true, "authorize" the performance of some of his piano concertos by piano and string quartet, as the notes to this Analekta release point out. But, as a Vienna freelancer in uncharted territory, he could hardly have done otherwise, and to suggest, from the perspective of 21st century Canada and its social safety net, that this indicates anything about the desirability of such a performance is questionable. Truth to tell, these two concertos from 1782, although their wind parts are not as prominent as those in some of the later ones, still sound a bit bare in their contrasts between solo and tutti here. The main reason for recommending this release comes from the chance to get in on the ground floor with a potential future star, 15-year-old Karin Kei Nagano, daughter of conductor Kent Nagano and pianist Mari Kodama. With a pedigree like that you might expect her to be listening to Quebecois trash rock, but she's both competent and fresh. She gets an unusual narrative sense out of both of the opening movements, her slow movements have an arresting cantabile, and she does what she can with the balance between string quartet and piano. Here's to hearing her in something like Debussy soon.

Karin Kei Nagano, Cecilia String Quartet - Mozart: Piano Concertos Nos. 12 & 13 (2014)

Track List:

1. Piano concerto no. 13 in C major, K.415 - 1. Allegro 10:34
2. Piano concerto no. 13 in C major, K.415 - 2. Andante 7:55
3. Piano concerto no. 13 in C major, K.415 - 3. Allegro 8:23
4. Piano concerto no. 12 in A major, K.414 - 1. Allegro 10:37
5. Piano concerto no. 12 in A major, K.414 - 2. Andante 8:46
6. Piano concerto no. 12 in A major, K.414 - 3. Allegretto 6:33

Performers:
Karin Kei Nagano (piano)
Cecilia String Quartet

Exact Audio Copy V1.0 beta 3 from 29. August 2011

EAC extraction logfile from 12. November 2014, 17:16

Karin Kei Nagano / Mozart - Two Piano Concertos 'a quattro' - Karin Kei Nagano

Used drive : TSSTcorpCDDVDW SH-222BB Adapter: 2 ID: 1

Read mode : Secure
Utilize accurate stream : Yes
Defeat audio cache : Yes
Make use of C2 pointers : No

Read offset correction : 6
Overread into Lead-In and Lead-Out : No
Fill up missing offset samples with silence : Yes
Delete leading and trailing silent blocks : No
Null samples used in CRC calculations : Yes
Used interface : Native Win32 interface for Win NT & 2000

Used output format : User Defined Encoder
Selected bitrate : 896 kBit/s
Quality : High
Add ID3 tag : No
Command line compressor : C:\Program Files\Exact Audio Copy\FLAC\FLAC.EXE
Additional command line options : -8 -V -T "TITLE=%title%" -T "ARTIST=%artist%" -T "ALBUMARTIST=%albumartist%" -T "ALBUM=%albumtitle%" -T "DATE=%year%" -T "TRACKNUMBER=%tracknr%" -T "TRACKTOTAL=%numtracks%" -T "GENRE=%genre%" -T "COMMENT=%comment%" -T "PERFORMER=%albuminterpret%" -T "COMPOSER=%composer%" %source% -o %dest%


TOC of the extracted CD

Track | Start | Length | Start sector | End sector
––––––––––––––––––––––––––––-
1 | 0:00.00 | 10:35.08 | 0 | 47632
2 | 10:35.08 | 7:55.57 | 47633 | 83314
3 | 18:30.65 | 8:22.56 | 83315 | 121020
4 | 26:53.46 | 10:35.27 | 121021 | 168672
5 | 37:28.73 | 8:40.51 | 168673 | 207723
6 | 46:09.49 | 6:35.60 | 207724 | 237408


Range status and errors

Selected range

Filename G:\Ripped general\[7678] Mozart – Two Piano Concertos 'a quattro' – Karin Kei Nagano\Mozart - Two Piano Concertos 'a quattro' - Karin Kei Nagano.wav

Peak level 80.9 %
Extraction speed 2.8 X
Range quality 100.0 %
Test CRC 52CBD3A1
Copy CRC 52CBD3A1
Copy OK

No errors occurred


AccurateRip summary

Track 1 not present in database
Track 2 not present in database
Track 3 not present in database
Track 4 not present in database
Track 5 not present in database
Track 6 not present in database

None of the tracks are present in the AccurateRip database

End of status report

==== Log checksum 167F40AD2860F9ABA6F9DAC38C040BE9AF634B4A33ABC6425F1FC61A89EE5B92 ====

Thanks to the Original ripper (unknown)!

Welcome to my blog!

Download: