Subcategories

Karin Krog & John Surman - Cloud Line Blue (1979) Remastered Reissue 2004

Posted By: Designol
Karin Krog & John Surman - Cloud Line Blue (1979) Remastered Reissue 2004

Karin Krog & John Surman - Cloud Line Blue (1979) Remastered Reissue 2004
EAC | FLAC | Tracks (Cue&Log) ~ 250 Mb | Mp3 (CBR320) ~ 100 Mb | Scans included
Vocal Jazz, Post-Bop, Avant-Garde Jazz | Label: Meantime | # MR11 | 00:41:15

The Norwegian vocalist Karin Krog is described by the Penguin Guide To Jazz On CD as "one of Europe's most stylish and significant jazz singers." This duo session recorded with John Surman in 1976 began a professional relationship with Surman that has continued to this day. Available now for the first time on CD the session is notable for Krog's expressive and technically astute voice, her advanced musical ideas and Surman's use of acoustic instrumentation (saxes and clarinet) combined with electronics (moog and other synthesizers).

Incredible work from Scandinavian singer Karin Krog! Although Krog began her career as a straight jazz vocalist, she cut a number of records in the 70's that had her pushing into a cool territory that was a lot more progressive, and which had some great Euro-fusion touches – like the sorts you'd find on classic MPS recordings. This session, recorded under the guidance of John Surman, has Krog's icy Scandinavian voice in moody settings of moog and electric keyboards, plus some spacey soprano work by Surman. The album's filled with excellent spacey soundscapes that have Surman soloing nicely on reeds, and which have Krog singing in a style that will bring to mind the radiator song from Eraserhead. Titles include "New Spring", "Alone Song", "Edge Piece", "Empty Streets", "Eyeless In Movement", and "Cloud Line Blue".

Dusty Groove

Karin Krog & John Surman - Cloud Line Blue (1979) Remastered Reissue 2004



Personnel:
Karin Krog (vocals)
John Surman (soprano & baritone saxes, bass clarinet, moog & EMS synth, guitar)
Janet Cooke (piano, string ensemble)
Stu Martin (drums)

Recorded at Riverside Recordings, London and Talent Studios, Oslo

Tracklist:

01. Alone Song (4:28)
02. New Spring (6:54)
03. Eyeless In Movement (6:30)
04. Jonathan (7:28)
05. Empty Streets (4:09)
06. Cloud Line Blue (8:51)
07. Edge Piece (2:55)


Exact Audio Copy V0.99 prebeta 4 from 23. January 2008

EAC extraction logfile from 24. January 2010, 14:48

Karin Krog/John Surman / Cloud Line Blue

Used drive : MATSHITADVD-RAM UJ-860S Adapter: 0 ID: 0

Read mode : Secure
Utilize accurate stream : Yes
Defeat audio cache : Yes
Make use of C2 pointers : No

Read offset correction : 102
Overread into Lead-In and Lead-Out : No
Fill up missing offset samples with silence : Yes
Delete leading and trailing silent blocks : No
Null samples used in CRC calculations : Yes
Used interface : Installed external ASPI interface
Gap handling : Appended to previous track

Used output format : User Defined Encoder
Selected bitrate : 320 kBit/s
Quality : High
Add ID3 tag : No
Command line compressor : C:\Program Files\FLAC\flac.exe
Additional command line options : -8 -V -T "ARTIST=%a" -T"TITLE=%t" -T"ALBUM=%g" -T"DATE=%y" -T"TRACKNUMBER=%n" -T"GENRE=%m" -T"COMMENT=EAC FLAC -8" %s


TOC of the extracted CD

Track | Start | Length | Start sector | End sector
––––––––––––––––––––––––––––-
1 | 0:00.00 | 4:27.50 | 0 | 20074
2 | 4:27.50 | 6:53.52 | 20075 | 51101
3 | 11:21.27 | 6:29.63 | 51102 | 80339
4 | 17:51.15 | 7:27.65 | 80340 | 113929
5 | 25:19.05 | 4:08.72 | 113930 | 132601
6 | 29:28.02 | 8:51.15 | 132602 | 172441
7 | 38:19.17 | 2:55.33 | 172442 | 185599


Track 1

Filename G:\Musak 2\Karin Krog\Cloud Line Blue (1979)\01 - Alone Song.wav

Pre-gap length 0:00:02.00

Peak level 98.7 %
Track quality 100.0 %
Test CRC 1578DCDF
Copy CRC 1578DCDF
Track not present in AccurateRip database
Copy OK

Track 2

Filename G:\Musak 2\Karin Krog\Cloud Line Blue (1979)\02 - New Spring.wav

Pre-gap length 0:00:02.04

Peak level 98.7 %
Track quality 100.0 %
Test CRC 5153B8C5
Copy CRC 5153B8C5
Track not present in AccurateRip database
Copy OK

Track 3

Filename G:\Musak 2\Karin Krog\Cloud Line Blue (1979)\03 - Eyeless In Movement.wav

Peak level 98.7 %
Track quality 99.9 %
Test CRC A319784D
Copy CRC A319784D
Track not present in AccurateRip database
Copy OK

Track 4

Filename G:\Musak 2\Karin Krog\Cloud Line Blue (1979)\04 - Jonathan.wav

Pre-gap length 0:00:01.97

Peak level 98.7 %
Track quality 100.0 %
Test CRC 8770207D
Copy CRC 8770207D
Track not present in AccurateRip database
Copy OK

Track 5

Filename G:\Musak 2\Karin Krog\Cloud Line Blue (1979)\05 - Empty Streets.wav

Pre-gap length 0:00:01.66

Peak level 95.1 %
Track quality 100.0 %
Test CRC CFD288B2
Copy CRC CFD288B2
Track not present in AccurateRip database
Copy OK

Track 6

Filename G:\Musak 2\Karin Krog\Cloud Line Blue (1979)\06 - Cloud Line Blue.wav

Peak level 98.6 %
Track quality 100.0 %
Test CRC 5EC95D26
Copy CRC 5EC95D26
Track not present in AccurateRip database
Copy OK

Track 7

Filename G:\Musak 2\Karin Krog\Cloud Line Blue (1979)\07 - Edge Piece.wav

Peak level 98.7 %
Track quality 100.0 %
Test CRC A2CAEC0B
Copy CRC A2CAEC0B
Track not present in AccurateRip database
Copy OK


None of the tracks are present in the AccurateRip database

No errors occurred

End of status report

[CUETools log; Date: 31.01.2018 21:42:39; Version: 2.1.4]
[CTDB TOCID: EtgtyyGwrFu48KFYCsL92VZaT.s-] disk not present in database.
[AccurateRip ID: 000b897b-0045c345-4d09aa07] found.
Track [ CRC | V2 ] Status
01 [87f79747|c4a12673] (1+0/1) Accurately ripped
02 [4be134f9|75f55f1f] (1+0/1) Accurately ripped
03 [5776df48|622fcb30] (1+0/1) Accurately ripped
04 [756e9888|ee8d5fb0] (1+0/1) Accurately ripped
05 [227a079a|7052627f] (1+0/1) Accurately ripped
06 [4c1fc9d7|d91fdf8d] (1+0/1) Accurately ripped
07 [db8d3331|5675a3ae] (1+0/1) Accurately ripped

Track Peak [ CRC32 ] [W/O NULL] [ LOG ]
– 98,7 [E1E45E18] [CEBCF11B]
01 98,7 [1578DCDF] [78B8FFB4] CRC32
02 98,7 [5153B8C5] [8E696754] CRC32
03 98,7 [A319784D] [52FD8538] CRC32
04 98,7 [8770207D] [8C2D5F2F] CRC32
05 95,1 [CFD288B2] [B13EB298] CRC32
06 98,6 [5EC95D26] [2668FEAC] CRC32
07 98,7 [A2CAEC0B] [9D335624] CRC32

foobar2000 1.2 / Dynamic Range Meter 1.1.1
log date: 2018-01-31 21:46:33

––––––––––––––––––––––––––––––––––––––––
Analyzed: Karin Krog/John Surman / Cloud Line Blue
––––––––––––––––––––––––––––––––––––––––

DR Peak RMS Duration Track
––––––––––––––––––––––––––––––––––––––––
DR9 -0.11 dB -10.40 dB 4:28 01-Alone Song
DR8 -0.11 dB -9.65 dB 6:54 02-New Spring
DR13 -0.11 dB -16.04 dB 6:30 03-Eyeless In Movement
DR10 -0.11 dB -12.90 dB 7:28 04-Jonathan
DR11 -0.43 dB -14.76 dB 4:09 05-Empty Streets
DR9 -0.12 dB -12.05 dB 8:51 06-Cloud Line Blue
DR10 -0.11 dB -11.45 dB 2:55 07-Edge Piece
––––––––––––––––––––––––––––––––––––––––

Number of tracks: 7
Official DR value: DR10

Samplerate: 44100 Hz
Channels: 2
Bits per sample: 16
Bitrate: 886 kbps
Codec: FLAC
================================================================================

Karin Krog & John Surman - Cloud Line Blue (1979) Remastered Reissue 2004

Karin Krog & John Surman - Cloud Line Blue (1979) Remastered Reissue 2004