Subcategories

Katatonia - The Fall of Hearts (2016) [Japanese Edition, CD+DVD Audio]

Posted By: gribovar
Katatonia - The Fall of Hearts (2016) [Japanese Edition, CD+DVD Audio]

Katatonia - The Fall of Hearts (2016) [Japanese Edition, CD+DVD Audio]
EAC Rip | FLAC (image+.cue+log) - 519 MB | MP3 CBR 320 kbps (LAME 3.93) - 180 MB | Covers - 207 MB
DVD-A | Video: MPEG 2, 720x480 (16:9), 29.97 fps | Audio: AC-3/DTS/PCM, 48.0/96.0/32.0 KHz, 6 ch/2 ch, 448/1510/1024 Kbps | 4,66 GB
Genre: Atmospheric/Progressive Metal | RAR 3% Rec. | Label: Ward Records (GQCS-90168/69)

Katatonia have achieved legendary status in the realm of Swedish metal, with an evolution not dissimilar to English counterparts Anathema and Paradise Lost. One element that has remained intact throughout their various transformations is their masterful use of atmosphere, even if the compositional component has been largely streamlined by now. "The Fall of Hearts" is thankfully a largely adventurous offering, moreso than anything the band has recorded in many years. This latest by the morose quintet features plenty of surprising songwriting choices, including some of the their most bold musical explorations in quite some time. “Serac” navigates a maze of musical styles, bringing to mind bands like Opeth. The softer sides of bands like these are a large influence on …Hearts, sounding more akin to the latest releases by Riverside or Votum than their historical contemporaries My Dying Bride or Paradise Lost.
Progressive rock influences have always been present for Katatonia, but never quite in the vein seen here. Never before has the band sounded so comfortable and, well, right playing this style of music. The doom and gloom that makes up the marrow of Katatonia’s sound is now seen through a new, more conceptual framework executed magnificently. Album opener “Takeover” is a prime example of this. It begins abruptly with dreary, melodic guitars over Jonas Renkse’s crooning of days melting into nothingness, before suddenly transitioning into tribal drumming and technical guitar playing. The song keeps contorting and transforming as it goes along, repeating the emotionally resonant intro section at just the perfect time. This restless and breathtaking introduction to the album serves as a statement for what to expect from the rest, which is ultimately a more evolved and purposeful Katatonia.

CD Tracklist:
01. Takeover
02. Serein
03. Old Heart Falls
04. Decima
05. Sanction
06. Residual
07. Serac
08. Last Song Before the Fade
09. Shifts
10. The Night Subscriber
11. Pale Flag
12. Passer
13. Vakaren (Bonus track)
14. Night Comes Down (Bonus track)

Total time: 01:16:29

DVD Tracklist:
01. Takeover
02. Serein
03. Old Heart Falls
04. Decima
05. Sanction
06. Residual
07. Serac
08. Last Song Before the Fade
09. Shifts
10. The Night Subscriber
11. Pale Flag
12. Passer
13. Vakaren (Bonus track)

Total time: 01:12:15

Exact Audio Copy V1.1 from 23. June 2015

EAC extraction logfile from 27. June 2016, 0:50

KATATONIA / The Fall Of Hearts - Japan (GQCS-90168)

Used drive : HL-DT-STBD-RE BH10LS30 Adapter: 1 ID: 2

Read mode : Secure
Utilize accurate stream : Yes
Defeat audio cache : Yes
Make use of C2 pointers : No

Read offset correction : 667
Overread into Lead-In and Lead-Out : No
Fill up missing offset samples with silence : Yes
Delete leading and trailing silent blocks : No
Null samples used in CRC calculations : Yes
Used interface : Native Win32 interface for Win NT & 2000

Used output format : User Defined Encoder
Selected bitrate : 768 kBit/s
Quality : High
Add ID3 tag : No
Command line compressor : C:\Program Files (x86)\Exact Audio Copy\FLAC\FLAC.EXE
Additional command line options : -6 -V %source%


TOC of the extracted CD

Track | Start | Length | Start sector | End sector
––––––––––––––––––––––––––––-
1 | 0:00.00 | 7:06.51 | 0 | 32000
2 | 7:06.51 | 4:46.19 | 32001 | 53469
3 | 11:52.70 | 4:22.38 | 53470 | 73157
4 | 16:15.33 | 4:46.72 | 73158 | 94679
5 | 21:02.30 | 5:06.59 | 94680 | 117688
6 | 26:09.14 | 6:54.13 | 117689 | 148751
7 | 33:03.27 | 7:25.20 | 148752 | 182146
8 | 40:28.47 | 5:01.17 | 182147 | 204738
9 | 45:29.64 | 4:54.31 | 204739 | 226819
10 | 50:24.20 | 6:10.30 | 226820 | 254599
11 | 56:34.50 | 4:23.47 | 254600 | 274371
12 | 60:58.22 | 6:25.22 | 274372 | 303268
13 | 67:23.44 | 4:47.27 | 303269 | 324820
14 | 72:10.71 | 4:18.04 | 324821 | 344174


Range status and errors

Selected range

Filename E:\Música\EAC\Katatonia\KATATONIA - The Fall Of Hearts - Japan (GQCS-90168).wav

Peak level 100.0 %
Extraction speed 8.2 X
Range quality 100.0 %
Test CRC FB6EA2E4
Copy CRC FB6EA2E4
Copy OK

No errors occurred


AccurateRip summary

Track 1 not present in database
Track 2 not present in database
Track 3 not present in database
Track 4 not present in database
Track 5 not present in database
Track 6 not present in database
Track 7 not present in database
Track 8 not present in database
Track 9 not present in database
Track 10 not present in database
Track 11 not present in database
Track 12 not present in database
Track 13 not present in database
Track 14 not present in database

None of the tracks are present in the AccurateRip database

End of status report

–– CUETools DB Plugin V2.1.6

[CTDB TOCID: LP0PjlmK09UP0Mid0GM6QJpsBV0-] found
Submit result: LP0PjlmK09UP0Mid0GM6QJpsBV0- has been confirmed
Track | CTDB Status
1 | (5/5) Accurately ripped
2 | (5/5) Accurately ripped
3 | (5/5) Accurately ripped
4 | (5/5) Accurately ripped
5 | (5/5) Accurately ripped
6 | (5/5) Accurately ripped
7 | (5/5) Accurately ripped
8 | (5/5) Accurately ripped
9 | (5/5) Accurately ripped
10 | (5/5) Accurately ripped
11 | (5/5) Accurately ripped
12 | (5/5) Accurately ripped
13 | (5/5) Accurately ripped
14 | (5/5) Accurately ripped


==== Log checksum 35AA1BDF21FC388CC52DC21A585CDBDA9BE9FFE70A998EBBE2F667F212330308 ====

[CUETools log; Date: 03.03.2017 21:18:24; Version: 2.1.4]
[CTDB TOCID: LP0PjlmK09UP0Mid0GM6QJpsBV0-] found.
Track | CTDB Status
1 | (9/9) Accurately ripped
2 | (9/9) Accurately ripped
3 | (9/9) Accurately ripped
4 | (9/9) Accurately ripped
5 | (9/9) Accurately ripped
6 | (9/9) Accurately ripped
7 | (9/9) Accurately ripped
8 | (9/9) Accurately ripped
9 | (9/9) Accurately ripped
10 | (9/9) Accurately ripped
11 | (9/9) Accurately ripped
12 | (9/9) Accurately ripped
13 | (9/9) Accurately ripped
14 | (9/9) Accurately ripped
[AccurateRip ID: 002833c5-01ac085e-c311ed0e] disk not present in database.

Track Peak [ CRC32 ] [W/O NULL] [ LOG ]
– 100,0 [FB6EA2E4] [2CBEE444] CRC32
01 100,0 [7A6235DF] [A4DCD51F]
02 100,0 [5D1CF80E] [864E8974]
03 100,0 [EBE1047F] [861DFE8E]
04 100,0 [519B88BC] [99618BC0]
05 100,0 [94D72817] [D5FD15D8]
06 100,0 [2A9684DD] [DC9A5A58]
07 100,0 [113D8EEA] [27235280]
08 100,0 [42D8C179] [39F19142]
09 100,0 [689992BF] [91BACFC5]
10 100,0 [501AB1D2] [B4247672]
11 100,0 [6BE8A0C9] [2BE0F73A]
12 100,0 [7EF52D00] [B07C2689]
13 100,0 [0C02CD0E] [746CDA9A]
14 97,9 [E51003F6] [7C8655E4]

Katatonia - The Fall of Hearts (2016) [Japanese Edition, CD+DVD Audio]

Katatonia - The Fall of Hearts (2016) [Japanese Edition, CD+DVD Audio]

Katatonia - The Fall of Hearts (2016) [Japanese Edition, CD+DVD Audio]

Thanks to jarpomarx