Subcategories

Katia et Marielle Labeque - Schubert, Mozart (2007)

Posted By: tirexiss
Katia et Marielle Labeque - Schubert, Mozart (2007)

Katia et Marielle Labeque - Schubert, Mozart (2007)
EAC | FLAC (image+.cue, log) | Covers Included | 52:53 | 159 MB
Genre: Classical | Label: KML Recordings | Catalog: KML1117

Since they started their own KML label, the Labèque sisters have turned in one superb recording after another. First came a brilliant all-Ravel disc, then an incandescent disc of Debussy and Stravinsky, and now a disc combining Schubert and Mozart: the former with his colossal Fantasy in F minor, D. 940, plus the melancholy Andantino varié in B minor, D. 823, and the latter, with his monumental Sonata in D major, D. 448. In all three works, the Labèques are magnificent, but very different. In the F minor Fantasy, the sisters are emotionally tempestuous, storming and raging up and down their keyboards in waves of expressive intensity. In the B minor Variations, the Labèques are inward and introverted, playing with a softer touch and a more intimate tone. In the D major Sonata, the Labèques are more objective and classicizing, taking Mozart's three-movement work and performing it as an exquisitely poised piece of musical architecture. In all three works, as usual, the Labèques play with flawless technique and impeccable ensemble. Recorded in Gustav Mahler Hall in Dobbiaco, Italy, in January 2007, the digital sound here is close, warm, and all encompassing.

Katia et Marielle Labeque - Schubert, Mozart (2007)

Track List:

Franz Schubert
Fantasy in F minor for piano duet D 940/Op. 103
1. Allegro molto moderato 5.03
2. Lagro 2.57
3. Allegro vivace 6.27
4. Tempo I 6.02
5. Andantino varie in B minor for piano duet D 823/Op. 84 No. 1
Wolfgang Amadeus Mozart
Sonata in D major for two pianos, K 448 (375a)
6. Allegro con spirito 8.25
7. Andante 9.18
8. Allegro molto 6.32

Performers:
Katia Labeque, piano
Marielle Labeque, piano

Exact Audio Copy V0.99 prebeta 5 from 4. May 2009

Отчёт EAC об извлечении, выполненном 7. декабря 2010, 20:10

Katia und Marielle Labeque / Schubert-Mozart Labeque

Дисковод: Optiarc DVD RW AD-7203A Adapter: 0 ID: 1

Режим чтения : Достоверность
Использование точного потока : Да
Отключение кэша аудио : Да
Использование указателей C2 : Нет

Коррекция смещения при чтении : 48
Способность читать области Lead-in и Lead-out : Нет
Заполнение пропущенных сэмплов тишиной : Да
Удаление блоков с тишиной в начале и конце : Нет
При вычислениях CRC использовались нулевые сэмплы : Нет
Интерфейс : Установленный внешний ASPI-интерфейс

Выходной формат : Пользовательский кодировщик
Выбранный битрейт : 768 kBit/s
Качество : Высокий
Добавление ID3-тэга : Нет
Утилита сжатия : D:\Program Files 2\Exact Audio Copy\FLAC\FLAC.EXE
Дополнительные параметры : -8 -V -T "ARTIST=%a" -T "TITLE=%t" -T "ALBUM=%g" -T "DATE=%y" -T "TRACKNUMBER=%n" -T "GENRE=%m" -T "COMMENT=%e" %s -o %d


TOC извлечённого CD

Трек | Старт | Длительность | Начальный сектор | Конечный сектор
––––––––––––––––––––––––––––––––––-
1 | 0:00.00 | 5:05.04 | 0 | 22878
2 | 5:05.04 | 2:56.67 | 22879 | 36145
3 | 8:01.71 | 6:25.20 | 36146 | 65040
4 | 14:27.16 | 6:04.65 | 65041 | 92405
5 | 20:32.06 | 8:03.35 | 92406 | 128665
6 | 28:35.41 | 8:26.60 | 128666 | 166675
7 | 37:02.26 | 9:20.24 | 166676 | 208699
8 | 46:22.50 | 6:34.12 | 208700 | 238261


Характеристики диапазона извлечения и сообщения об ошибках

Выбранный диапазон

Имя файла F:\My musica\Labeque Schubert Mozart\Katia und Marielle Labeque - Schubert-Mozart Labeque.wav

Пиковый уровень 100.0 %
Качество диапазона 100.0 %
CRC копии D934C582
Копирование… OK

Ошибок не произошло


AccurateRip: сводка

Трек 1 точное извлечение (доверие 7) [B34AA231]
Трек 2 точное извлечение (доверие 7) [5F668FEB]
Трек 3 точное извлечение (доверие 7) [6372681C]
Трек 4 точное извлечение (доверие 7) [0ED6AF73]
Трек 5 точное извлечение (доверие 7) [BFEDBA98]
Трек 6 точное извлечение (доверие 7) [88681B9D]
Трек 7 точное извлечение (доверие 7) [5488AC5B]
Трек 8 точное извлечение (доверие 7) [E4767F3B]

Все треки извлечены точно

Конец отчёта

Thanks to the Original ripper (1000oceans)!

Download: