Subcategories

Katie Webster - 200% Joy! (1983)

Posted By: uff
Katie Webster - 200% Joy! (1983)

Katie Webster - 200% Joy! (1983)
Boogie-woogie | 1cd | EAC Rip | Flac + Cue + Log | covers
Ornament, CM 9002 | rem: 1991 | 280Mb

Katie Webster was an American boogie-woogie pianist. Webster was initially best known as a session musician behind Louisiana musicians on the Excello and Goldband record labels, such as Lightnin' Slim and Lonesome Sundown. She also played piano with Otis Redding in the 1960s, but after his death went into semi-retirement.
In the 1980s she was repeatedly booked for European tours and recorded albums for the German record label, Ornament Records, with Gary Wiggins and Chris Rannenberg - The International Blues Duo. She cut You Know That's Right with the band Hot Links, and the album that established her in the United States; The Swamp Boogie Queen with guest spots by Bonnie Raitt and Robert Cray. She performed at both the San Francisco Blues Festival and Long Beach Blues Festival.
Webster suffered a stroke in 1993 while touring Greece and returned to performing the following year. She died from heart failure in League City, Texas, in September 1999. ~Wikipedia

Track listing
01. Baby Come On (2:11)
02. I Wisch (4:20)
03. Came Home This Morning (4:45)
04. Texas Boogie Stew (2:11)
05. I Found A Love (4:31)
06. The Dock Of The Bay (4:10)
07. Rockin' The Subway (1:59)
08. Million Dollar Secret (5:21)
09. I Love You, Yes I Do (2:13)
10. Baby Please (5:57)
11. White Silver Sand (2:50)
12. Tomorrow Night (5:04)
13. Lord, Don't Move The Mountain (4:31)


Отчёт EAC об извлечении, выполненном 10. августа 2010, 19:28 для диска:
Katie Webster / 200% Joy

Дисковод: TEAC DV-516GB Adapter: 0 ID: 1
Режим чтения: Точный (C2: нет, Точный поток: да, Отключение кэша: да)
Коррекция смещения при чтении: 6
Экстрачтение областей Lead-in и Lead-out : Нет

Выходной формат: Внутренние WAV-операции
44.100 Гц; 16 бит; стерео

Другие параметры:
Заполнение пропущенных сэмплов тишиной : Да
Удаление блоков с тишиной в начале и конце : Нет
'Родной' Win32-интерфейс для Win NT/2000


Трек 1
Имя файла C:\Katie Webster (1983)\200% Joy\01-Baby Come On.wav

Пиковый уровень 100.0 %
Качество трека 99.9 %
CRC теста 6AE87966
CRC копии 6AE87966
Копирование… OK

Трек 2
Имя файла C:\Katie Webster (1983)\200% Joy\02-I Wisch.wav

Пиковый уровень 100.0 %
Качество трека 100.0 %
CRC теста 52DD5B74
CRC копии 52DD5B74
Копирование… OK

Трек 3
Имя файла C:\Katie Webster (1983)\200% Joy\03-Came Home This Morning.wav

Пиковый уровень 100.0 %
Качество трека 100.0 %
CRC теста 3E7051B3
CRC копии 3E7051B3
Копирование… OK

Трек 4
Имя файла C:\Katie Webster (1983)\200% Joy\04-Texas Boogie Stew.wav

Пиковый уровень 100.0 %
Качество трека 99.9 %
CRC теста EC03065B
CRC копии EC03065B
Копирование… OK

Трек 5
Имя файла C:\Katie Webster (1983)\200% Joy\05-I Found A Love.wav

Пиковый уровень 100.0 %
Качество трека 100.0 %
CRC теста 14157785
CRC копии 14157785
Копирование… OK

Трек 6
Имя файла C:\Katie Webster (1983)\200% Joy\06-The Dock Of The Bay.wav

Пиковый уровень 100.0 %
Качество трека 100.0 %
CRC теста 1820614D
CRC копии 1820614D
Копирование… OK

Трек 7
Имя файла C:\Katie Webster (1983)\200% Joy\07-Rockin' The Subway.wav

Пиковый уровень 100.0 %
Качество трека 99.9 %
CRC теста 4E213925
CRC копии 4E213925
Копирование… OK

Трек 8
Имя файла C:\Katie Webster (1983)\200% Joy\08-Million Dollar Secret.wav

Пиковый уровень 100.0 %
Качество трека 100.0 %
CRC теста 93EBC28F
CRC копии 93EBC28F
Копирование… OK

Трек 9
Имя файла C:\Katie Webster (1983)\200% Joy\09-I Love You, Yes I Do.wav

Пиковый уровень 100.0 %
Качество трека 100.0 %
CRC теста C7E7F16F
CRC копии C7E7F16F
Копирование… OK

Трек 10
Имя файла C:\Katie Webster (1983)\200% Joy\10-Baby Please.wav

Пиковый уровень 100.0 %
Качество трека 100.0 %
CRC теста 1E4BDFFC
CRC копии 1E4BDFFC
Копирование… OK

Трек 11
Имя файла C:\Katie Webster (1983)\200% Joy\11-White Silver Sand.wav

Пиковый уровень 100.0 %
Качество трека 100.0 %
CRC теста 8E0070E3
CRC копии 8E0070E3
Копирование… OK

Трек 12
Имя файла C:\Katie Webster (1983)\200% Joy\12-Tomorrow Night.wav

Пиковый уровень 100.0 %
Качество трека 100.0 %
CRC теста B0040212
CRC копии B0040212
Копирование… OK

Трек 13
Имя файла C:\Katie Webster (1983)\200% Joy\13-Lord, Don't Move The Mountain.wav

Пиковый уровень 100.0 %
Качество трека 100.0 %
CRC теста 19149EFD
CRC копии 19149EFD
Копирование… OK

Ошибок не произошло


Конец отчёта



[CUETools log; Date: 2016. 08. 29. 9:47:50; Version: 2.1.6]
[CTDB TOCID: NAcVxelWxUxS1tuivWvUAHR2kWI-] found.
Track | CTDB Status
1 | (1/2) Accurately ripped
2 | (1/2) Accurately ripped
3 | (1/2) Accurately ripped
4 | (1/2) Accurately ripped
5 | (1/2) Accurately ripped
6 | (1/2) Accurately ripped
7 | (1/2) Accurately ripped
8 | (1/2) Accurately ripped
9 | (1/2) Accurately ripped
10 | (1/2) Accurately ripped
11 | (1/2) Accurately ripped
12 | (1/2) Accurately ripped
13 | (1/2) Accurately ripped
[AccurateRip ID: 0016e10b-00e7983a-a30bc00d] found.
Track [ CRC | V2 ] Status
01 [c62cb5c9|9ed5f774] (0+0/5) No match
02 [698ebced|2b1181fa] (0+0/5) No match
03 [a93112e0|794f1c1c] (0+0/5) No match
04 [df1c4904|686dcf80] (0+0/5) No match
05 [fd9bc02a|514c50b8] (0+0/5) No match
06 [6ac53151|c38ecd79] (0+0/5) No match
07 [9f83cc61|35ab01df] (0+0/5) No match
08 [1f04e5cf|c58a8050] (0+0/5) No match
09 [083bd274|694b6319] (0+0/5) No match
10 [4ea0e0d1|9f6ece40] (0+0/5) No match
11 [2f260613|d540bc2b] (0+0/5) No match
12 [65398303|39c2d4d5] (0+0/5) No match
13 [0bce4a7d|e807cc80] (0+0/5) No match

Track Peak [ CRC32 ] [W/O NULL]
– 100,0 [B52511A3] [7D6429AD]
01 100,0 [7149DADF] [6AE87966]
02 100,0 [698AF1D7] [52DD5B74]
03 100,0 [E67659E7] [3E7051B3]
04 100,0 [FC6856C0] [EC03065B]
05 100,0 [7F3F2D33] [14157785]
06 100,0 [1D45555C] [1820614D]
07 100,0 [45AA7C34] [4E213925]
08 100,0 [2DB0E28B] [93EBC28F]
09 100,0 [BD7E5378] [C7E7F16F]
10 100,0 [17A6D133] [1E4BDFFC]
11 100,0 [EFCBC2BB] [8E0070E3]
12 100,0 [587068AF] [B0040212]
13 100,0 [CF8D0242] [19149EFD]


Thx to RockNRollDoctorNSK
Bigfile
Datafile

password: asd