Subcategories

Katie Webster - Deluxe Edition (1999)

Posted By: uff
Katie Webster - Deluxe Edition (1999)

Katie Webster - Deluxe Edition (1999)
Blues | 1cd | EAC Rip | Flac + Cue + Log | covers
Alligator, ALCD5606 | rel: 1999 | 580Mb

Katie Webster plays barrelhouse boogie-woogie, New Orleans R&B, Gulf Coast swamp pop, deep bayou blues and Southern gospel-flavored soul like nobody's business; her 35 years of professional piano work has appeared on at least 500 singles, including the original version of "Sea of Love," and countless albums. Music critics and fans around the world acknowledge her as the premier female blues piano player anywhere. Alligator Records' Deluxe Edition collects 15 of her very best tracks from her three albums since 1988, and there isn't a filler track to be found. Webster never once failed to deliver on her sassy and sensuous blend of barrelhouse boogie-woogie. Some of the high points of Deluxe Edition include several duets – "Love Deluxe" with Vasti Jackson and the classic "Who's Making Love," which finds Kim Wilson (the Fabulous Thunderbirds) and bluesman Robert Cray jamming with the Boogie Queen. Wilson also accompanies Bonnie Raitt and Webster to wail "On the Run." Other standout tracks include her remake of "Sea of Love" and the non-vegetarian "A Little Meat on the Side." "The Love You Save" and "Two Fisted Mama" are sure to go down in the music history books as prime examples of Webster's swamp boogie styles. But perhaps the best cuts of the 15 are the blues-rich vocals and sax of "Try a Little Tenderness," a sure winner, and "Never Let Me Go," a torch-bearing ballad. Alligator's Deluxe Editions are just that – the best songs by the best artists in their catalog. And Katie Webster ranks right there at the top of that rich list. ~Allmusic

Track listing
01. Two-Fisted Mama (3:21)
02. Who's Making Love (3:59)
03. I'm Bad (4:34)
04. C.Q. Boogie (2:39)
05. It's Mighty Hard (6:30)
06. Love Deluxe (3:22)
07. Sea Of Love (3:18)
08. A Little Meat On The Side (3:06)
09. Try Little Tenderness (4:18)
10. Never Let Me Go (5:10)
11. I'm Still Leaving You (3:36)
12. Whoo-Wee Sweet Daddy (3:18)
13. On The Run (6:33)
14. Hallelujah, I Just Love Him So (2:54)
15. The Love You Save May Be Your Own (4:54)


Exact Audio Copy V0.99 prebeta 5 from 4. May 2009

Отчёт EAC об извлечении, выполненном 25. марта 2010, 12:38

Katie Webster / Deluxe Edition

Дисковод: PIONEER DVD-RW DVR-218L Adapter: 0 ID: 0

Режим чтения : Достоверность
Использование точного потока : Да
Отключение кэша аудио : Да
Использование указателей C2 : Нет

Коррекция смещения при чтении : 6
Способность читать области Lead-in и Lead-out : Нет
Заполнение пропущенных сэмплов тишиной : Да
Удаление блоков с тишиной в начале и конце : Нет
При вычислениях CRC использовались нулевые сэмплы : Да
Интерфейс : Встроенный Win32-интерфейс для Win NT/2000

Выходной формат : Внутренние WAV-операции
Формат сэмплов : 44.100 Гц; 16 бит; стерео


TOC извлечённого CD

Трек | Старт | Длительность | Начальный сектор | Конечный сектор
––––––––––––––––––––––––––––––––––-
1 | 0:00.00 | 3:21.62 | 0 | 15136
2 | 3:21.62 | 3:59.20 | 15137 | 33081
3 | 7:21.07 | 4:34.03 | 33082 | 53634
4 | 11:55.10 | 2:39.12 | 53635 | 65571
5 | 14:34.22 | 6:30.30 | 65572 | 94851
6 | 21:04.52 | 3:22.05 | 94852 | 110006
7 | 24:26.57 | 3:18.38 | 110007 | 124894
8 | 27:45.20 | 3:06.67 | 124895 | 138911
9 | 30:52.12 | 4:18.28 | 138912 | 158289
10 | 35:10.40 | 5:10.20 | 158290 | 181559
11 | 40:20.60 | 3:36.15 | 181560 | 197774
12 | 43:57.00 | 3:18.40 | 197775 | 212664
13 | 47:15.40 | 6:33.00 | 212665 | 242139
14 | 53:48.40 | 2:54.10 | 242140 | 255199
15 | 56:42.50 | 4:54.35 | 255200 | 277284


Характеристики диапазона извлечения и сообщения об ошибках

Выбранный диапазон

Имя файла G:\Temp\Katie Webster\1999 Deluxe Edition.wav

Пиковый уровень 100.0 %
Качество диапазона 100.0 %
CRC теста 408FD58C
CRC копии 408FD58C
Копирование… OK

Ошибок не произошло


AccurateRip: сводка

Трек 1 точное извлечение (доверие 2) [91F3BDBD]
Трек 2 точное извлечение (доверие 2) [0A69A71D]
Трек 3 точное извлечение (доверие 2) [4DBD0261]
Трек 4 точное извлечение (доверие 2) [112E50AF]
Трек 5 точное извлечение (доверие 2) [A85812F4]
Трек 6 точное извлечение (доверие 2) [C74549AF]
Трек 7 точное извлечение (доверие 2) [A5F7ED79]
Трек 8 точное извлечение (доверие 2) [0254071F]
Трек 9 точное извлечение (доверие 2) [A53D9EEB]
Трек 10 точное извлечение (доверие 2) [E89F1A0B]
Трек 11 точное извлечение (доверие 2) [BAE7A527]
Трек 12 точное извлечение (доверие 2) [41101002]
Трек 13 точное извлечение (доверие 2) [302A5C19]
Трек 14 точное извлечение (доверие 2) [E121E9CB]
Трек 15 точное извлечение (доверие 2) [6AA01203]

Все треки извлечены точно

Конец отчёта



[CUETools log; Date: 2016. 07. 04. 16:22:50; Version: 2.1.6]
[CTDB TOCID: LJ_jDLll9acLWQd54BEA6LTKJN8-] found.
Track | CTDB Status
1 | (9/9) Accurately ripped
2 | (9/9) Accurately ripped
3 | (9/9) Accurately ripped
4 | (9/9) Accurately ripped
5 | (9/9) Accurately ripped
6 | (8/9) Accurately ripped
7 | (9/9) Accurately ripped
8 | (9/9) Accurately ripped
9 | (9/9) Accurately ripped
10 | (8/9) Accurately ripped
11 | (9/9) Accurately ripped
12 | (9/9) Accurately ripped
13 | (8/9) Accurately ripped
14 | (9/9) Accurately ripped
15 | (9/9) Accurately ripped
[AccurateRip ID: 0020f96f-0177de8f-c90e710f] found.
Track [ CRC | V2 ] Status
01 [91f3bdbd|c5c3087e] (04+00/16) Accurately ripped
02 [0a69a71d|c0fdde09] (04+00/16) Accurately ripped
03 [4dbd0261|5c4c782c] (04+00/16) Accurately ripped
04 [112e50af|9cccd125] (04+00/15) Accurately ripped
05 [a85812f4|6f8b3f88] (04+00/16) Accurately ripped
06 [c74549af|5029b57d] (04+00/16) Accurately ripped
07 [a5f7ed79|f601bf75] (04+00/16) Accurately ripped
08 [0254071f|b0119676] (04+00/16) Accurately ripped
09 [a53d9eeb|cc01dae7] (04+00/16) Accurately ripped
10 [e89f1a0b|1f17c933] (04+00/15) Accurately ripped
11 [bae7a527|c88ea756] (04+00/16) Accurately ripped
12 [41101002|80c648bc] (04+00/16) Accurately ripped
13 [302a5c19|34751454] (04+00/16) Accurately ripped
14 [e121e9cb|5d68eced] (04+00/16) Accurately ripped
15 [6aa01203|ca6adda7] (04+00/16) Accurately ripped
Offsetted by -180:
01 [5c0dc76c] (06/16) Accurately ripped
02 [fc3df15a] (06/16) Accurately ripped
03 [5508fdf9] (06/16) Accurately ripped
04 [d27f031b] (05/15) Accurately ripped
05 [a488f474] (06/16) Accurately ripped
06 [2bd84687] (06/16) Accurately ripped
07 [24a02dc3] (06/16) Accurately ripped
08 [a762e95d] (06/16) Accurately ripped
09 [c4fd9201] (06/16) Accurately ripped
10 [d7333365] (05/15) Accurately ripped
11 [636d3923] (06/16) Accurately ripped
12 [c1a942b6] (06/16) Accurately ripped
13 [a74bd935] (06/16) Accurately ripped
14 [19d1e487] (06/16) Accurately ripped
15 [2b7c79cf] (06/16) Accurately ripped

Track Peak [ CRC32 ] [W/O NULL]
– 100,0 [408FD58C] [81AC4044]
01 92,7 [4C6C3233] [948B26E9]
02 86,7 [2B1E9690] [D51C7834]
03 93,9 [7E7AE7AA] [EBD37A1E]
04 85,2 [F62AD6E1] [BEAD5602]
05 91,6 [6C89F8BB] [C8001260]
06 83,6 [63F031F9] [EE344A6D]
07 89,3 [284D1739] [6ABD1D3C]
08 82,2 [E708949F] [B034FA3F]
09 90,0 [A5480190] [E24C578D]
10 94,9 [49503159] [CA281E16]
11 87,7 [A568AE21] [127ACDC7]
12 100,0 [30BD99DB] [382ED33B]
13 84,8 [E773D193] [FB89488C]
14 85,4 [4C30E02F] [E31C2DBE]
15 86,5 [A194D7D3] [D4E983F0]


Thx to BolshoeR
Bigfile
Yunfile

password: asd