Subcategories

Kayhan Kalhor & Brooklyn Rider - Silent City (2008) (Repost)

Posted By: tirexiss
Kayhan Kalhor & Brooklyn Rider - Silent City (2008) (Repost)

Kayhan Kalhor & Brooklyn Rider - Silent City (2008)
XLD | FLAC (image+.cue, log) | Covers Included | 52:59 | 248 MB
Genre: Classical, World | Label: World Village | Catalog: 468078

Kayhan Kalhor, a virtuoso of a four-stringed Persian fiddle known as the kamancheh, collaborated with New York modernist string quartet, Brooklyn Rider, for SILENT CITY, after the ensemble travelled to his native Iran. This stirring collection finds his evocative leads meshing beautifully with the quartet's orchestrations on a series of movements based on Iranian folktales. A partnership eight years in the making, Kalhor westernizes his traditional playing with classical touches such as pizzicato while Brooklyn Rider likewise synthesizes the intricacies of Kalhor's Persian melodies. The results mesmerize. The title track, an elegy for Halabjah, a Kurdish city razed by Saddam Hussein, is passionate stunner that will haunt listeners long after the record's close.

Kayhan Kalhor & Brooklyn Rider - Silent City (2008) (Repost)

Track List:

1. Ascending Bird
2. Silent City
3. Parvaz
4. Beloved, Do Not Let Me Be Discouraged

Performers:
Kayhan Kalhor Primary Artist, Setar, Kamanche

The string quartet Brooklyn Rider:
Colin Jacobsen Violin
Jonathan Gandelsman Violin
Nicholas Cords Viola
Eric Jacobsen Cello

Siamak Aghaei Santur, Tombak
Mark Suter Percussion, Shells, Djembe, Bodhran, Cajon, Doira, Metal Objects

X Lossless Decoder version 20090320 (105.1)

XLD extraction logfile from 2009-07-05 11:18:36 +0200

Kayhan Kalhor & Brooklyn Rider / Silent City

Used drive : MATSHITA DVD-R UJ-868 (revision KA14)

Use cdparanoia mode : YES (CDParanoia III 9.8 engine)
Disable audio cache : OK for the drive with cache less than 370KB
Make use of C2 pointers : NO
Read offset correction : 102
Max retry count : 100

TOC of the extracted CD
Track | Start | Length | Start sector | End sector
––––––––––––––––––––––––––––-
1 | 00:00:00 | 06:54:27 | 0 | 31076
2 | 06:54:27 | 29:09:52 | 31077 | 162303
3 | 36:04:04 | 06:23:11 | 162304 | 191039
4 | 42:27:15 | 10:34:00 | 191040 | 238589

All Tracks
Filename : /Users/Home/Desktop/Silent City.flac
CRC32 hash (test run) : F659DC27
CRC32 hash : F659DC27
CRC32 hash (skip zero) : 1724457A
Statistics
Read error : 0
Skipped (treated as error) : 0
Edge jitter error (maybe fixed) : 0
Atom jitter error (maybe fixed) : 0
Drift error (maybe fixed) : 0
Dropped bytes error (maybe fixed) : 0
Duplicated bytes error (maybe fixed) : 0
Inconsistency in error sectors : 0

Track 01
CRC32 hash (test run) : D1D11E51
CRC32 hash : D1D11E51
CRC32 hash (skip zero) : CADCAF34
AccurateRip signature : 55500B69
->Track not present in AccurateRip database.
Statistics
Read error : 0
Skipped (treated as error) : 0
Edge jitter error (maybe fixed) : 0
Atom jitter error (maybe fixed) : 0
Drift error (maybe fixed) : 0
Dropped bytes error (maybe fixed) : 0
Duplicated bytes error (maybe fixed) : 0
Inconsistency in error sectors : 0

Track 02
CRC32 hash (test run) : 84E1960E
CRC32 hash : 84E1960E
CRC32 hash (skip zero) : 23A40D8A
AccurateRip signature : A8F5DD81
->Track not present in AccurateRip database.
Statistics
Read error : 0
Skipped (treated as error) : 0
Edge jitter error (maybe fixed) : 0
Atom jitter error (maybe fixed) : 0
Drift error (maybe fixed) : 0
Dropped bytes error (maybe fixed) : 0
Duplicated bytes error (maybe fixed) : 0
Inconsistency in error sectors : 0

Track 03
CRC32 hash (test run) : F1D2FAB0
CRC32 hash : F1D2FAB0
CRC32 hash (skip zero) : F021C600
AccurateRip signature : D9D5CD42
->Track not present in AccurateRip database.
Statistics
Read error : 0
Skipped (treated as error) : 0
Edge jitter error (maybe fixed) : 0
Atom jitter error (maybe fixed) : 0
Drift error (maybe fixed) : 0
Dropped bytes error (maybe fixed) : 0
Duplicated bytes error (maybe fixed) : 0
Inconsistency in error sectors : 0

Track 04
CRC32 hash (test run) : 5CA81575
CRC32 hash : 5CA81575
CRC32 hash (skip zero) : A83E9485
AccurateRip signature : 14CCCC1A
->Track not present in AccurateRip database.
Statistics
Read error : 0
Skipped (treated as error) : 0
Edge jitter error (maybe fixed) : 0
Atom jitter error (maybe fixed) : 0
Drift error (maybe fixed) : 0
Dropped bytes error (maybe fixed) : 0
Duplicated bytes error (maybe fixed) : 0
Inconsistency in error sectors : 0

No errors occurred

End of status report

[CUETools log; Date: 24.03.2018 11:10:56; Version: 2.1.5]
[CTDB TOCID: xpZsxtjJiKP0yIE0zzN8I9bBbsk-] found.
Track | CTDB Status
1 | (11/11) Accurately ripped
2 | (11/11) Accurately ripped
3 | (11/11) Accurately ripped
4 | (11/11) Accurately ripped
[AccurateRip ID: 000981a3-00263dc1-300c6d04] found.
Track [ CRC | V2 ] Status
01 [55500b69|144ca5d9] (03+10/13) Accurately ripped
02 [a8f5dd81|d5cd81ce] (03+10/13) Accurately ripped
03 [d9d5cd42|3239f5c1] (03+10/13) Accurately ripped
04 [14cccc1a|a9a4bdae] (03+10/13) Accurately ripped

Track Peak [ CRC32 ] [W/O NULL]
– 93,6 [F659DC27] [1724457A]
01 93,6 [D1D11E51] [CADCAF34]
02 82,0 [84E1960E] [23A40D8A]
03 75,6 [F1D2FAB0] [F021C600]
04 80,5 [5CA81575] [A83E9485]

Thanks to the Original ripper (unknown)!

Download: