Subcategories

Kaz Hawkins - Get Ready! (2014)

Posted By: Designol
Kaz Hawkins - Get Ready! (2014)

Kaz Hawkins - Get Ready! (2014)
EAC | FLAC | Image (Cue&Log) ~ 241 Mb | Mp3 (CBR320) ~ 94 Mb | Scans included
Blues-Rock, Soul, Blues | Label: Kaz Hawkins | # none | Time: 00:39:00

Mostly underground for years as a secret songwriter. Kaz Hawkins is now established as one the biggest female singers ever to come out of Northern Ireland, called “A Vocal Force” on stage, she envelops the fighting spirit of a true powerhouse singer. With comparisons to her idol Etta James, Mavis Staples, Janis Joplin. Kaz is loved for her down to earth attitude; she brings fun to every performance & is loved not only by her fans but anyone who meets her. She has lived and sang “The Blues” but has much more to offer across different genres in her song writing and has now embarked on an exciting mix of genres she has written for her debut album ‘Get Ready‘ which she self released in August 2014 to exciting reviews. This unique songstress wowed fans across the UK on her Get Ready Tour in September 2014 with fans & critics comparing her to the old female blues greats. This formidable lady is rising and rising fast. Kaz is a singer songwriter with a difference, she captivates an audience with her vocal range & emotional portrayal of her life. She is one of Belfast’s true characters.

Blues is miserable, downbeat and introspective; if that is your stereotype then Get Ready you haven’t heard and definitely not seen Kaz Hawkins and Her Band O Men perform. This may be a debut album but there is a world of musical knowledge and talent that pours out of Kaz’s immense and powerful vocal chords. From the first note to the last, the warmth and personality of Kaz shines through this is an album that catches and the mix of styles that has influenced blues or been influenced by blues are threaded through the tracks so each and every one is shaped and honed. We here echoes of field hollers, gospel, soul, honkey-tonk and jazz what we have is the Kaz effect Wow! That is really a great fresh contemporary sound you want to listen to and enjoy.

Her album opens with Hallelujah Happy People, you will want to join her where the happy people go for two positive reasons to raise your spirits and hear her spellbinding vocal delivery. Throughout it is full of vocal allure and the raw energy that tells the lyrics exactly as it is. Every track has a tale of interest delivered with an honest reality that connects I Saw A Man is slower full of heart-wretching soulfulness painting a lyrical picture as we come to know and understand what Kaz has seen and motivated her to write about this unnamed man. There is no doubt that we all believe in Kaz having experienced her musical journey through the album Get Ready; the title track sums it up instead of sing “Get Ready for Peace, Get Ready for Love” it should be Get Ready for Kaz Hawkins and Her Band O Men.

Get your dancing shoes on and join the party for Shake and Can’t Afford Me you will be smiling and moving and grooving with every perfectly produced note. Drink With the Devil a cleverly produced song that feels and sounds as if it is echoing the feel of speakeasy bars during prohibition. Closing with Walking On My Own there is a personal tale but with music of this quality walking on her own is a thing of the past for Kaz.

There can be no argument that Kaz does Belfast proud continuing a music tradition that has to be heard far and wide and very, very often as we can explore the music and understand the reflective tone and language of a life lived to the full with all the bumps in the road and the tears of laughter and of joy.
Get Ready, is an album of extraordinary depths, emotional maturity and a vocal dexterity that demands to be heard and admired and her Band O Men just add the tonal dimensions for her talent to fly high as she hits the warmest of blues notes.

Bluesdoodles gives this CD TEN doodle paws out of TEN ….

Review by Liz Aiken, BluesDoodles.com

Kaz Hawkins - Get Ready! (2014)



Tracklist:

01. Hallelujah Happy People (3:38)
02. I saw a Man (3:47)
03. Believe With Me (3:46)
04. Shake (4:43)
05. Get Ready (4:15)
06. Cant afford Me (3:16)
07. Coz You (3:46)
08. Drink with the Devil (4:41)
09. Born to be Lovers (4:07)
10. Walking on my Own (3:02)


Exact Audio Copy V1.1 from 23. June 2015

EAC extraction logfile from 24. February 2018, 19:36

Kaz Hawkins / Get Ready!

Used drive : Optiarc DVD RW AD-7240S Adapter: 1 ID: 0

Read mode : Secure
Utilize accurate stream : Yes
Defeat audio cache : Yes
Make use of C2 pointers : No

Read offset correction : 48
Overread into Lead-In and Lead-Out : No
Fill up missing offset samples with silence : Yes
Delete leading and trailing silent blocks : No
Null samples used in CRC calculations : Yes
Used interface : Native Win32 interface for Win NT & 2000

Used output format : User Defined Encoder
Selected bitrate : 896 kBit/s
Quality : High
Add ID3 tag : No
Command line compressor : C:\Program Files (x86)\Exact Audio Copy\Flac\flac.exe
Additional command line options : -V -8 -T "Date=%year%" -T "Genre=%genre%" %source%


TOC of the extracted CD

Track | Start | Length | Start sector | End sector
––––––––––––––––––––––––––––-
1 | 0:00.00 | 3:37.73 | 0 | 16347
2 | 3:37.73 | 3:47.02 | 16348 | 33374
3 | 7:25.00 | 3:45.46 | 33375 | 50295
4 | 11:10.46 | 4:42.48 | 50296 | 71493
5 | 15:53.19 | 4:14.62 | 71494 | 90605
6 | 20:08.06 | 3:15.41 | 90606 | 105271
7 | 23:23.47 | 3:46.11 | 105272 | 122232
8 | 27:09.58 | 4:40.59 | 122233 | 143291
9 | 31:50.42 | 4:07.29 | 143292 | 161845
10 | 35:57.71 | 3:01.57 | 161846 | 175477


Range status and errors

Selected range

Filename D:\My Music Archive_D\__My Rips\Kaz Hawkins - Get Ready!\Kaz Hawkins - Get Ready!.wav

Peak level 99.2 %
Extraction speed 3.7 X
Range quality 100.0 %
Test CRC D91F1667
Copy CRC D91F1667
Copy OK

No errors occurred


AccurateRip summary

Track 1 cannot be verified as accurate (confidence 1) [4A3463C9], AccurateRip returned [396C2095] (AR v2)
Track 2 cannot be verified as accurate (confidence 1) [4E80B98B], AccurateRip returned [949A4596] (AR v2)
Track 3 cannot be verified as accurate (confidence 1) [445401D8], AccurateRip returned [F6B6D235] (AR v2)
Track 4 cannot be verified as accurate (confidence 1) [E3178F58], AccurateRip returned [D3D99EF1] (AR v2)
Track 5 cannot be verified as accurate (confidence 1) [BF3C9140], AccurateRip returned [06C54325] (AR v2)
Track 6 cannot be verified as accurate (confidence 1) [30A60C76], AccurateRip returned [C2ABB8AD] (AR v2)
Track 7 cannot be verified as accurate (confidence 1) [C278959B], AccurateRip returned [8C33F237] (AR v2)
Track 8 cannot be verified as accurate (confidence 1) [31FA8603], AccurateRip returned [960A88A4] (AR v2)
Track 9 cannot be verified as accurate (confidence 1) [4C51C144], AccurateRip returned [9B0BA6CF] (AR v2)
Track 10 cannot be verified as accurate (confidence 1) [AEF3E9B2], AccurateRip returned [6776271A] (AR v2)

No tracks could be verified as accurate
You may have a different pressing from the one(s) in the database

End of status report

==== Log checksum 6E84E8BE8131C73E7576C4E0791773E7FEA1B5ADD8E0A7BB9242825A79C0BC2D ====

foobar2000 1.2 / Dynamic Range Meter 1.1.1
log date: 2018-02-28 20:10:41

––––––––––––––––––––––––––––––––––––––––
Analyzed: Kaz Hawkins / Get Ready!
––––––––––––––––––––––––––––––––––––––––

DR Peak RMS Duration Track
––––––––––––––––––––––––––––––––––––––––
DR8 -0.07 dB -9.84 dB 3:38 01-Hallelujah Happy People
DR9 -0.40 dB -12.41 dB 3:47 02-I saw a Man
DR8 -0.40 dB -9.12 dB 3:46 03-Believe With Me
DR8 -0.40 dB -9.72 dB 4:43 04-Shake
DR9 -0.40 dB -10.82 dB 4:15 05-Get Ready
DR8 -0.40 dB -9.65 dB 3:16 06-Cant afford Me
DR8 -0.40 dB -10.20 dB 3:46 07-Coz You
DR9 -0.30 dB -11.61 dB 4:41 08-Drink with the Devil
DR7 -0.40 dB -8.35 dB 4:07 09-Born to be Lovers
DR8 -0.40 dB -9.49 dB 3:02 10-Walking on my Own
––––––––––––––––––––––––––––––––––––––––

Number of tracks: 10
Official DR value: DR8

Samplerate: 44100 Hz
Channels: 2
Bits per sample: 16
Bitrate: 849 kbps
Codec: FLAC
================================================================================

Kaz Hawkins - Get Ready! (2014)

Kaz Hawkins - Get Ready! (2014)

All thanks to original releaser - funny_horse

More interesting music in My Blog