Subcategories

Kazumi Watanabe - Mo' Bop III (2006) {EWE Japan}

Posted By: tiburon
Kazumi Watanabe - Mo' Bop III (2006) {EWE Japan}

Kazumi Watanabe - Mo' Bop III (2006) {EWE Japan}
EAC 0.99pb4 | FLAC tracks level 8 | Cue+Log+M3U | Full Scans 300dpi | 353MB + 5% Recovery
MP3 CBR 320 Kbps | 123MB + 5% Recovery
Genre: Fusion

Mo' Bop III is an album by guitarist Kazumi Watanabe. It was released in 2006 and features only two other members in the lineup, besides Watanabe. The album is part of a project called "New Electric Trio" which began in 2003 with Mo' Bop. The album is characterized by a heavy fusion sound.
Track List
01. Emboss (Kazumi Watanabe) 04:46
02. Somewhere In Time (John Barry) 06.07
03. Tiger Beam (Kazumi Watanabe) 05:00
04. Lawns (Carlo Bley) 04:55
05. Dragon's Secret (Kazumi Watanabe) 07:52
06. Good Fellows (Koko Tanikawa) 03:31
07. Infancia (Egberto Gismonti) 06:06
08. Stolen Moments (Oliver Nelson) 06:37
09. Manhattan Flu Dance (Kazumi Watanabe) 06:05

musicians
Kazumi Watanabe - electric and acoustic guitars, guitar synthesizer
Richard Bona - bass
Horacio "El Negro" Hernández - drums
Cyro Baptista - percussion on 1, 2, 7, 9

Produced by Kazumi Watanabe


Exact Audio Copy V0.99 prebeta 4 from 23. January 2008

EAC extraction logfile from 18. September 2008, 18:23

Kazumi Watanabe New Electric Trio / Mo' Bop III

Used drive : TOSHIBA DVD/HD SD-H802A Adapter: 0 ID: 3

Read mode : Secure
Utilize accurate stream : Yes
Defeat audio cache : Yes
Make use of C2 pointers : No

Read offset correction : 697
Overread into Lead-In and Lead-Out : No
Fill up missing offset samples with silence : Yes
Delete leading and trailing silent blocks : No
Null samples used in CRC calculations : Yes
Used interface : Native Win32 interface for Win NT & 2000
Gap handling : Appended to previous track

Used output format : User Defined Encoder
Selected bitrate : 128 kBit/s
Quality : High
Add ID3 tag : No
Command line compressor : C:\Program Files\Exact Audio Copy\flac.exe
Additional command line options : -8 -V -T "artist=%a" -T "title=%t" -T "album=%g" -T "date=%y" -T "tracknumber=%n" -T "genre=%m" -T comment="%e" -T "comment=Exact Audio Copy (Secure Mode)" %s –verify


TOC of the extracted CD

Track | Start | Length | Start sector | End sector
––––––––––––––––––––––––––––-
1 | 0:00.00 | 4:46.41 | 0 | 21490
2 | 4:46.41 | 6:09.22 | 21491 | 49187
3 | 10:55.63 | 5:03.18 | 49188 | 71930
4 | 15:59.06 | 4:58.06 | 71931 | 94286
5 | 20:57.12 | 7:55.13 | 94287 | 129924
6 | 28:52.25 | 3:33.33 | 129925 | 145932
7 | 32:25.58 | 6:09.14 | 145933 | 173621
8 | 38:34.72 | 6:40.06 | 173622 | 203627
9 | 45:15.03 | 6:05.54 | 203628 | 231056


Track 1

Filename C:\Users\Jack\Desktop\Kazumi Watanabe New Electric Trio-Mo' Bop III\01-Emboss.wav

Pre-gap length 0:00:02.00

Peak level 95.9 %
Track quality 99.9 %
Copy CRC 3EA18AB9
Track not present in AccurateRip database
Copy OK

Track 2

Filename C:\Users\Jack\Desktop\Kazumi Watanabe New Electric Trio-Mo' Bop III\02-Somewhere In Time.wav

Pre-gap length 0:00:00.01

Peak level 95.9 %
Track quality 100.0 %
Copy CRC 4EC6C0B3
Track not present in AccurateRip database
Copy OK

Track 3

Filename C:\Users\Jack\Desktop\Kazumi Watanabe New Electric Trio-Mo' Bop III\03-Tiger Beam.wav

Pre-gap length 0:00:01.89

Peak level 95.9 %
Track quality 100.0 %
Copy CRC 15FAD867
Track not present in AccurateRip database
Copy OK

Track 4

Filename C:\Users\Jack\Desktop\Kazumi Watanabe New Electric Trio-Mo' Bop III\04-Lawns.wav

Pre-gap length 0:00:02.69

Peak level 91.5 %
Track quality 100.0 %
Copy CRC A3EB5546
Track not present in AccurateRip database
Copy OK

Track 5

Filename C:\Users\Jack\Desktop\Kazumi Watanabe New Electric Trio-Mo' Bop III\05-Dragon's Secret.wav

Pre-gap length 0:00:02.41

Peak level 95.9 %
Track quality 99.9 %
Copy CRC 0FD8E987
Track not present in AccurateRip database
Copy OK

Track 6

Filename C:\Users\Jack\Desktop\Kazumi Watanabe New Electric Trio-Mo' Bop III\06-Good Fellows.wav

Pre-gap length 0:00:02.36

Peak level 95.9 %
Track quality 100.0 %
Copy CRC CE41CDC2
Track not present in AccurateRip database
Copy OK

Track 7

Filename C:\Users\Jack\Desktop\Kazumi Watanabe New Electric Trio-Mo' Bop III\07-Infancia.wav

Pre-gap length 0:00:02.30

Peak level 95.9 %
Track quality 100.0 %
Copy CRC 70F3A247
Track not present in AccurateRip database
Copy OK

Track 8

Filename C:\Users\Jack\Desktop\Kazumi Watanabe New Electric Trio-Mo' Bop III\08-Stolen Moments.wav

Pre-gap length 0:00:02.20

Peak level 95.9 %
Track quality 100.0 %
Copy CRC 6E64F23D
Track not present in AccurateRip database
Copy OK

Track 9

Filename C:\Users\Jack\Desktop\Kazumi Watanabe New Electric Trio-Mo' Bop III\09-Manhattan Flu Dance.wav

Pre-gap length 0:00:02.78

Peak level 95.9 %
Track quality 100.0 %
Copy CRC 6DB7574F
Track not present in AccurateRip database
Copy OK


None of the tracks are present in the AccurateRip database

No errors occurred

End of status report


––––––––––––––––––––––––––––––––––––––––
Analyzed: Kazumi Watanabe New Electric Trio / Mo' Bop III
––––––––––––––––––––––––––––––––––––––––

DR Peak RMS Duration Track
––––––––––––––––––––––––––––––––––––––––
DR8 -0.36 dB -9.30 dB 4:47 01-Emboss
DR8 -0.36 dB -8.84 dB 6:09 02-Somewhere In Time
DR8 -0.36 dB -9.51 dB 5:03 03-Tiger Beam
DR8 -0.76 dB -10.73 dB 4:58 04-Lawns
DR8 -0.36 dB -10.15 dB 7:55 05-Dragon's Secret
DR9 -0.36 dB -10.36 dB 3:33 06-Good Fellows
DR8 -0.36 dB -9.72 dB 6:09 07-Infancia
DR9 -0.36 dB -10.68 dB 6:40 08-Stolen Moments
DR7 -0.36 dB -8.68 dB 6:06 09-Manhattan Flu Dance
––––––––––––––––––––––––––––––––––––––––

Number of tracks: 9
Official DR value: DR8

Samplerate: 44100 Hz
Channels: 2
Bits per sample: 16
Bitrate: 1006 kbps
Codec: FLAC
================================================================================

Kazumi Watanabe - Mo' Bop III (2006) {EWE Japan}
Kazumi Watanabe - Mo' Bop III (2006) {EWE Japan}
Kazumi Watanabe - Mo' Bop III (2006) {EWE Japan}


Thanks to the original ripper