Subcategories

Keb’ Mo’ - Just Like You (1996) {2017, Japanese Reissue}

Posted By: popsakov
Keb’ Mo’ - Just Like You (1996) {2017, Japanese Reissue}

Keb’ Mo’ - Just Like You (1996) {2017, Japanese Reissue}
EAC Rip | FLAC (Img) + Cue + Log ~ 328 Mb | MP3 CBR320 ~ 120 Mb
Full Scans (PNG, 600 dpi) ~ 129 Mb | RAR 5% Recovery
Delta Blues, Modern Acoustic Blues, Modern Electric Blues | Sony Music #SICP-5354

Just like You is the second studio album by Delta blues artist Keb' Mo', released in 1996. It features guest artists Jackson Browne and Bonnie Raitt, both on the title track "Just Like You". Unlike the first album, Just Like You features a more blues-pop to blues-rock feel and more of its tracks feature a full band. In 1997, Just Like You won the Grammy Award for Best Contemporary Blues Album.

***************

Keb’ Mo’ - Just Like You (1996) {2017, Japanese Reissue}

Keb’ Mo’ - Just Like You (1996) {2017, Japanese Reissue}

Track List:

01. That's Not Love [4:08]
02. Perpetual Blues Machine [3:16]
03. More Than One Way Home [4:53]
04. I'm On Your Side [3:40]
05. Just Like You [3:26]
06. You Can Love Yourself [2:33]
07. Dangerous Mood [4:59]
08. The Action [3:58]
09. Hand It Over [2:54]
10. Standin' At The Station [3:13]
11. Momma, Where's My Daddy [3:07]
12. Last Fair Deal Gone Down [3:47]
13. Lullaby Baby Blues [2:36]
14. Take It Away [3:38]

Exact Audio Copy V1.3 from 2. September 2016

EAC extraction logfile from 26. July 2017, 18:18

Keb' Mo' / Just Like You

Used drive : TSSTcorpCDDVDW SE-S084C Adapter: 0 ID: 0

Read mode : Secure
Utilize accurate stream : Yes
Defeat audio cache : Yes
Make use of C2 pointers : No

Read offset correction : 6
Overread into Lead-In and Lead-Out : No
Fill up missing offset samples with silence : Yes
Delete leading and trailing silent blocks : No
Null samples used in CRC calculations : Yes
Used interface : Installed external ASPI interface

Used output format : User Defined Encoder
Selected bitrate : 320 kBit/s
Quality : High
Add ID3 tag : No
Command line compressor : C:\Program Files (x86)\Exact Audio Copy\FLAC\FLAC.EXE
Additional command line options : -V -8 -T "Date=%year%" -T "Genre=%genre%" %source%


TOC of the extracted CD

Track | Start | Length | Start sector | End sector
––––––––––––––––––––––––––––-
1 | 0:00.00 | 4:07.55 | 0 | 18579
2 | 4:07.55 | 3:16.15 | 18580 | 33294
3 | 7:23.70 | 4:52.65 | 33295 | 55259
4 | 12:16.60 | 3:39.57 | 55260 | 71741
5 | 15:56.42 | 3:26.03 | 71742 | 87194
6 | 19:22.45 | 2:33.22 | 87195 | 98691
7 | 21:55.67 | 4:58.40 | 98692 | 121081
8 | 26:54.32 | 3:58.28 | 121082 | 138959
9 | 30:52.60 | 2:54.25 | 138960 | 152034
10 | 33:47.10 | 3:12.65 | 152035 | 166499
11 | 37:00.00 | 3:07.12 | 166500 | 180536
12 | 40:07.12 | 3:46.63 | 180537 | 197549
13 | 43:54.00 | 2:35.60 | 197550 | 209234
14 | 46:29.60 | 3:37.47 | 209235 | 225556


Range status and errors

Selected range

Filename D:\EAC\Keb' Mo' - Just Like You.wav

Peak level 96.6 %
Extraction speed 4.2 X
Range quality 100.0 %
Test CRC 5727C982
Copy CRC 5727C982
Copy OK

No errors occurred


AccurateRip summary

Track 1 cannot be verified as accurate (confidence 4) [E42395AB], AccurateRip returned [75ED4EBD] (AR v2)
Track 2 cannot be verified as accurate (confidence 4) [E6704412], AccurateRip returned [B65E3EC4] (AR v2)
Track 3 cannot be verified as accurate (confidence 4) [7123AEFD], AccurateRip returned [E93A219D] (AR v2)
Track 4 cannot be verified as accurate (confidence 4) [C6C3039F], AccurateRip returned [31A77E66] (AR v2)
Track 5 cannot be verified as accurate (confidence 4) [E2D2E62A], AccurateRip returned [4A64DADF] (AR v2)
Track 6 cannot be verified as accurate (confidence 4) [3B06E502], AccurateRip returned [0EFBA606] (AR v2)
Track 7 cannot be verified as accurate (confidence 4) [8634A437], AccurateRip returned [B4215605] (AR v2)
Track 8 cannot be verified as accurate (confidence 4) [F8A7C894], AccurateRip returned [8997E1AF] (AR v2)
Track 9 cannot be verified as accurate (confidence 4) [70830DCC], AccurateRip returned [8CCF3DE2] (AR v2)
Track 10 cannot be verified as accurate (confidence 4) [60FDE04E], AccurateRip returned [BE16AAE9] (AR v2)
Track 11 cannot be verified as accurate (confidence 4) [33693F51], AccurateRip returned [CE643913] (AR v2)
Track 12 cannot be verified as accurate (confidence 4) [D12291DA], AccurateRip returned [7B6EA564] (AR v2)
Track 13 cannot be verified as accurate (confidence 4) [196ED4A3], AccurateRip returned [DA190483] (AR v2)
Track 14 cannot be verified as accurate (confidence 4) [7E6AC36C], AccurateRip returned [9305D792] (AR v2)

No tracks could be verified as accurate
You may have a different pressing from the one(s) in the database

End of status report

–– CUETools DB Plugin V2.1.6

[CTDB TOCID: njiTbTFmz08Udzg6ZeV0Y8zmCxs-] found
Submit result: njiTbTFmz08Udzg6ZeV0Y8zmCxs- has been confirmed
Track | CTDB Status
1 | (2/2) Accurately ripped
2 | (2/2) Accurately ripped
3 | (2/2) Accurately ripped
4 | (2/2) Accurately ripped
5 | (2/2) Accurately ripped
6 | (2/2) Accurately ripped
7 | (2/2) Accurately ripped
8 | (2/2) Accurately ripped
9 | (2/2) Accurately ripped
10 | (2/2) Accurately ripped
11 | (2/2) Accurately ripped
12 | (2/2) Accurately ripped
13 | (2/2) Accurately ripped
14 | (2/2) Accurately ripped


==== Log checksum 0FC7594D0FD899FFA6CCC2ED5574895D307A83789D708AA60877F25A34C85891 ====

foobar2000 1.2.6 / Dynamic Range Meter 1.1.1
log date: 2017-07-30 22:44:14

––––––––––––––––––––––––––––––––––––––––
Analyzed: Keb' Mo' / Just Like You
––––––––––––––––––––––––––––––––––––––––

DR Peak RMS Duration Track
––––––––––––––––––––––––––––––––––––––––
DR10 -0.30 dB -11.16 dB 4:08 01-That's Not Love
DR11 -2.50 dB -14.72 dB 3:16 02-Perpetual Blues Machine
DR8 -0.30 dB -9.84 dB 4:53 03-More Than One Way Home
DR10 -0.30 dB -11.20 dB 3:40 04-I'm On Your Side
DR10 -0.30 dB -12.82 dB 3:26 05-Just Like You
DR11 -0.30 dB -13.08 dB 2:33 06-You Can Love Yourself
DR9 -0.30 dB -10.72 dB 4:59 07-Dangerous Mood
DR9 -0.30 dB -10.01 dB 3:58 08-The Action
DR11 -0.30 dB -12.53 dB 2:54 09-Hand It Over
DR9 -0.30 dB -9.79 dB 3:13 10-Standin' At The Station
DR14 -0.70 dB -18.97 dB 3:07 11-Momma, Where's My Daddy
DR9 -0.30 dB -10.36 dB 3:47 12-Last Fair Deal Gone Down
DR13 -0.58 dB -16.78 dB 2:36 13-Lullaby Baby Blues
DR9 -0.48 dB -10.37 dB 3:38 14-Take It Away
––––––––––––––––––––––––––––––––––––––––

Number of tracks: 14
Official DR value: DR10

Samplerate: 44100 Hz
Channels: 2
Bits per sample: 16
Bitrate: 870 kbps
Codec: FLAC
================================================================================

[CUETools log; Date: 30.07.2017 22:35:32; Version: 2.1.5]
[CTDB TOCID: njiTbTFmz08Udzg6ZeV0Y8zmCxs-] found.
Track | CTDB Status
1 | (3/3) Accurately ripped
2 | (3/3) Accurately ripped
3 | (3/3) Accurately ripped
4 | (3/3) Accurately ripped
5 | (3/3) Accurately ripped
6 | (3/3) Accurately ripped
7 | (3/3) Accurately ripped
8 | (3/3) Accurately ripped
9 | (3/3) Accurately ripped
10 | (3/3) Accurately ripped
11 | (3/3) Accurately ripped
12 | (3/3) Accurately ripped
13 | (3/3) Accurately ripped
14 | (3/3) Accurately ripped
[AccurateRip ID: 001acc3c-011b09cb-c60bbf0e] found.
Track [ CRC | V2 ] Status
01 [8b11451f|e42395ab] (0+0/4) No match
02 [22b74d71|e6704412] (0+0/4) No match
03 [93850aec|7123aefd] (0+0/4) No match
04 [41c19b3f|c6c3039f] (0+0/4) No match
05 [a103eb3b|e2d2e62a] (0+0/4) No match
06 [5bd9396e|3b06e502] (0+0/4) No match
07 [6076097c|8634a437] (0+0/4) No match
08 [da37aa33|f8a7c894] (0+0/4) No match
09 [0a0ca81f|70830dcc] (0+0/4) No match
10 [5c34dd88|60fde04e] (0+0/4) No match
11 [4089c94f|33693f51] (0+0/4) No match
12 [335cbdb3|d12291da] (0+0/4) No match
13 [2655c051|196ed4a3] (0+0/4) No match
14 [0cfa2ae5|7e6ac36c] (0+0/4) No match
Offsetted by 655:
01 [75ed4ebd] (4/4) Accurately ripped
02 [b65e3ec4] (4/4) Accurately ripped
03 [e93a219d] (4/4) Accurately ripped
04 [31a77e66] (4/4) Accurately ripped
05 [4a64dadf] (4/4) Accurately ripped
06 [0efba606] (4/4) Accurately ripped
07 [b4215605] (4/4) Accurately ripped
08 [8997e1af] (4/4) Accurately ripped
09 [8ccf3de2] (4/4) Accurately ripped
10 [be16aae9] (4/4) Accurately ripped
11 [ce643913] (4/4) Accurately ripped
12 [7b6ea564] (4/4) Accurately ripped
13 [da190483] (4/4) Accurately ripped
14 [9305d792] (4/4) Accurately ripped

Track Peak [ CRC32 ] [W/O NULL] [ LOG ]
– 96,6 [5727C982] [F758A629] CRC32
01 96,6 [47C1961A] [82F8BB3F]
02 74,9 [C69987BA] [BCAB0A5C]
03 96,6 [A993B83D] [FF26530A]
04 96,6 [4341530C] [EDBCD89A]
05 96,6 [920671FC] [1F61E6E2]
06 96,6 [7227DF57] [38050463]
07 96,6 [8CFCC7E9] [050A5C9A]
08 96,6 [F985C842] [30D9F9AB]
09 96,6 [DEE6B613] [CC36E28A]
10 96,6 [F62F8F0F] [2F1A470E]
11 92,2 [0B3C94C1] [2709C924]
12 96,6 [ABDB18EF] [481D2B7B]
13 93,5 [02A126D3] [E7544EC6]
14 94,5 [8204A82D] [4D898766]

Keb’ Mo’ - Just Like You (1996) {2017, Japanese Reissue}

All thanks go to salernitana

>>> My Blog <<<

Download from icerbox.com: