Subcategories

Keith Jarrett - Treasure Island (1974) {Impulse!}

Posted By: tiburon
Keith Jarrett - Treasure Island (1974) {Impulse!}

Keith Jarrett - Treasure Island (1974) {Impulse!}
EAC 0.99pb4 | FLAC tracks level 8 | Cue+Log+M3U | Full Scans 300dpi | 283MB + 5% Recovery
MP3 CBR 320 Kbps | 109MB + 5% Recovery
Genre: Jazz, Post-Bop
Keith Jarrett - Treasure Island (1974) {Impulse!}

Treasure Island, released in early 1974, was the second of two albums pianist and composer Keith Jarrett recorded for Impulse Records – the first was Fort Yawuh, issued a year earlier. Cut at Generation Sound Studios in New York City, the band consisted of Jarrett on piano and soprano saxophone, Dewey Redman on tenor, bassist Charlie Haden, and drummer Paul Motian. And though he would more than likely disagree, this was the best band he ever led. In addition to the quartet, guitarist Sam Brown contributes to a pair of cuts here as Guilherme Franco and Danny Johnson add percussion to the mix. The set kicks off with the beautiful "The Rich (And the Poor)," a folkish melody of the type Jarrett was exploring on ECM at the time, with some stellar African undertones – it's easy to hear the majesty of Abdullah Ibrahim's South African musical sphere in this mix, and earthy deep, sparer work by Redman and Haden. The brief "Blue Streak," by contrast, is full-on and busy with melody and interplay between Redman and Motian. More speculative group improvisation occurs on "Fullsuvollivus," which travels decidedly outside, and the title cut with Sam Jones on electric guitar in place of Redman is a lithe, elegant, midtempo ballad that showcases Jarrett's truly magnificent melodic work in front of this enlarged rhythm section. The hardest groover on this set is their killer "Le Mistral," with some gorgeous interplay between Haden and Motian, and some extended solo work by Redman. "Angles (Without Edges)" is a dense construction that involves some taut counterpoint between Redman and Jarrett, even as the rhythm section tries to push them both inside toward one another – Redman slips out of the frame a few times to excellent effect. Haden's solo is also particularly noteworthy. Brown returns on the closer "Sister Fortune," a track with almost rockist overtones. Jarrett had perhaps heard some records in his day, particularly from the Atlantic catalog, and he put that spin on this melody, which incorporates groove, repetitive and circular rhythm, and a songlike melodic structure with minimal improvisation – though his own fills are quite stunning and deep in the pulse pocket. This is a terrific sendoff to a very fertile, creative period and begs the question as to what else may have happened had this band been able to explore their unique, fully communal sound together for more than a pair of albums.
Track List
01 - The Rich (and The Poor)
02 - Blue Streak
03 - Fullsuvollivus (Fools Of All Of Us)
04 - Treasure Island
05 - Introduction & Yaqui Indian Folk Song
06 - Le Mistral
07 - Angles (Without Edges)
08 - Sister Fortune

musicians
Keith Jarrett - Piano, Soprano Sax, Osi drum
Charlie Haden - Bass
Paul Motian - Drums, Percussion
Sam Brown - Guitar
Guilherme Franco - Percussion
Danny Johnson - Percussion
Dewey Redman - Sax (Tenor), Tambourine

Produced by Ed Michel


Exact Audio Copy V0.99 prebeta 4 from 23. January 2008

EAC extraction logfile from 18. October 2009, 18:35

Keith Jarrett / Treasure Island

Used drive : PLEXTOR CD-R PREMIUM2 Adapter: 1 ID: 1

Read mode : Secure
Utilize accurate stream : Yes
Defeat audio cache : Yes
Make use of C2 pointers : No

Read offset correction : 30
Overread into Lead-In and Lead-Out : No
Fill up missing offset samples with silence : Yes
Delete leading and trailing silent blocks : No
Null samples used in CRC calculations : Yes
Used interface : Installed external ASPI interface
Gap handling : Appended to previous track

Used output format : User Defined Encoder
Selected bitrate : 32 kBit/s
Quality : High
Add ID3 tag : No
Command line compressor : C:\Programmi\FLAC\flac.exe
Additional command line options : -8 -V -T "ARTIST=%a" -T "TITLE=%t" -T "ALBUM=%g" -T "DATE=%y" -T "TRACKNUMBER=%n" -T "GENRE=%m" -T "COMMENT=EAC FLAC -8" %s


TOC of the extracted CD

Track | Start | Length | Start sector | End sector
––––––––––––––––––––––––––––-
1 | 0:00.00 | 9:26.05 | 0 | 42454
2 | 9:26.05 | 2:35.49 | 42455 | 54128
3 | 12:01.54 | 6:30.41 | 54129 | 83419
4 | 18:32.20 | 4:14.44 | 83420 | 102513
5 | 22:46.64 | 2:18.18 | 102514 | 112881
6 | 25:05.07 | 9:25.05 | 112882 | 155261
7 | 34:30.12 | 5:23.48 | 155262 | 179534
8 | 39:53.60 | 4:27.25 | 179535 | 199584


Track 1

Filename D:\My Rip\01 - The Rich (and The Poor).wav

Pre-gap length 0:00:02.00

Peak level 98.8 %
Track quality 100.0 %
Test CRC E908DAE1
Copy CRC E908DAE1
Accurately ripped (confidence 1) [9A84F36A]
Copy OK

Track 2

Filename D:\My Rip\02 - Blue Streak.wav

Peak level 98.8 %
Track quality 100.0 %
Test CRC 375F8629
Copy CRC 375F8629
Accurately ripped (confidence 1) [D41E724B]
Copy OK

Track 3

Filename D:\My Rip\03 - Fullsuvollivus (Fools Of All Of Us).wav

Peak level 98.8 %
Track quality 100.0 %
Test CRC 16DD274F
Copy CRC 16DD274F
Accurately ripped (confidence 1) [48446FF4]
Copy OK

Track 4

Filename D:\My Rip\04 - Treasure Island.wav

Peak level 93.9 %
Track quality 100.0 %
Test CRC 15CECA5B
Copy CRC 15CECA5B
Accurately ripped (confidence 1) [373BA0A1]
Copy OK

Track 5

Filename D:\My Rip\05 - Introduction & Yaqui Indian Folk Song.wav

Peak level 56.0 %
Track quality 100.0 %
Test CRC 46A6F8E5
Copy CRC 46A6F8E5
Accurately ripped (confidence 1) [83FD5078]
Copy OK

Track 6

Filename D:\My Rip\06 - Le Mistral.wav

Peak level 75.9 %
Track quality 100.0 %
Test CRC DC2D8B58
Copy CRC DC2D8B58
Accurately ripped (confidence 1) [E00AF4DC]
Copy OK

Track 7

Filename D:\My Rip\07 - Angles (Without Edges).wav

Peak level 71.4 %
Track quality 100.0 %
Test CRC 01FF557C
Copy CRC 01FF557C
Accurately ripped (confidence 1) [036C1B3C]
Copy OK

Track 8

Filename D:\My Rip\08 - Sister Fortune.wav

Peak level 83.3 %
Track quality 99.9 %
Test CRC 923ADA27
Copy CRC 923ADA27
Accurately ripped (confidence 1) [02F7CB6F]
Copy OK


All tracks accurately ripped

No errors occurred

End of status report

Keith Jarrett - Treasure Island (1974) {Impulse!}
Keith Jarrett - Treasure Island (1974) {Impulse!}


Thanks to the original ripper