Subcategories

Kenny Drew Trio with Almost Big Band - Sophisticated Lady [Recorded 1981] (2013)

Posted By: gribovar
Kenny Drew Trio with Almost Big Band - Sophisticated Lady [Recorded 1981] (2013)

Kenny Drew Trio with Almost Big Band - Sophisticated Lady [Recorded 1981] (2013)
EAC Rip | FLAC (image+.cue+log) - 286 MB | MP3 CBR 320 kbps (LAME 3.93) - 97 MB | Covers - 24 MB
Genre: Jazz | RAR 3% Rec. | Label: Pony Canyon (PCCY-30216)

A collection of previously unreleased materials by the Kenny Drew Trio, originally recorded for Japanese labels Baystate and Alpha beween 1978 and 1992, now released to commemmorate the 20th anniversary of his passing. A rich trove of superb piano trio performances!
American pianist Kenny Drew (1928-1993) moved to Copenhagen, Denmark, in 1964. Although he may have somewhat faded from the radar of American jazz fans, he had a fantastic career in Denmark and was beloved by European and Japanese jazz fans. In the late 1970s and 1980s, Drew's popularity in Japan grew to incredible heights when he began recording for Japanese labels such as Baystate and Alpha under a partnership with Japanese producer Makoto Kimata.
To commemmorate the 20th anniversary of Drew's passing, a very special series was launched in Japan in 2013, with a release of previously unpublished materials recorded for the two labels between 1978 and 1992. They are alternate takes and takes that did not make onto the original albums released in this period. Danish super-bassist Niels-Henning Orsted Pedersen held the bass chair throughout, and the drummer is either Ed Thigpen, a fellow American expat who had settled in Copenhagen, or Alvin Queen.
It is quite amazing to hear the consistently high quality of these "outtakes" and to realize that there is enough material to fill CDs in this series. Actually, many these "outtakes" tend to be more exciting than those takes that made the original albums. They may have been "cut" because they were slightly rough around the edges, but perhaps they were played with more freedom, abandon, and adventurous spirit.
Recorded live at "Slukefter Jazz Club", Tivoli Gardens, Copenhagen on June 10-11, 1981.
Tracklist:
01. Blues for Duane
02. Serenity
03. What's This Here Samba
04. Bosko's Business
05. Sophisticated Lady
06. Crisis

Total time: 41:32

Exact Audio Copy V1.1 from 23. June 2015

EAC extraction logfile from 15. July 2015, 22:45

Kenny Drew Trio / Sophisticated Lady

Used drive : ASUS DRW-24B1LT Adapter: 1 ID: 1

Read mode : Secure
Utilize accurate stream : Yes
Defeat audio cache : Yes
Make use of C2 pointers : No

Read offset correction : 6
Overread into Lead-In and Lead-Out : No
Fill up missing offset samples with silence : Yes
Delete leading and trailing silent blocks : No
Null samples used in CRC calculations : Yes
Used interface : Native Win32 interface for Win NT & 2000

Used output format : User Defined Encoder
Selected bitrate : 768 kBit/s
Quality : High
Add ID3 tag : No
Command line compressor : C:\Program Files\Exact Audio Copy\Flac\flac.exe
Additional command line options : -8 -V -T "ARTIST=%artist%" -T "TITLE=%title%" -T "ALBUM=%albumtitle%" -T "DATE=%year%" -T "TRACKNUMBER=%tracknr%" -T "TOTALTRACKS=%numtracks%" -T "GENRE=%genre%" -T "ALBUMARTIST=%albumartist%" -T "ALBUM ARTIST=%albumartist%" -T "COMMENT=EAC Secure Mode, Test & Copy, AccurateRip, FLAC -8" %source%


TOC of the extracted CD

Track | Start | Length | Start sector | End sector
––––––––––––––––––––––––––––-
1 | 0:00.00 | 6:44.04 | 0 | 30303
2 | 6:44.04 | 4:41.37 | 30304 | 51415
3 | 11:25.41 | 7:57.14 | 51416 | 87204
4 | 19:22.55 | 12:03.50 | 87205 | 141479
5 | 31:26.30 | 3:54.63 | 141480 | 159092
6 | 35:21.18 | 6:11.12 | 159093 | 186929


Range status and errors

Selected range

Filename F:\audio\Kenny Drew Trio - Sophisticated Lady.wav

Peak level 99.4 %
Extraction speed 2.8 X
Range quality 100.0 %
Test CRC 4F250AF6
Copy CRC 4F250AF6
Copy OK

No errors occurred


AccurateRip summary

Track 1 accurately ripped (confidence 1) [A59981CC] (AR v2)
Track 2 accurately ripped (confidence 1) [3A22DA61] (AR v2)
Track 3 accurately ripped (confidence 1) [F07DD57E] (AR v2)
Track 4 accurately ripped (confidence 1) [2AE296DB] (AR v2)
Track 5 accurately ripped (confidence 1) [AFE519B2] (AR v2)
Track 6 accurately ripped (confidence 1) [F26E6B5A] (AR v2)

All tracks accurately ripped

End of status report

–– CUETools DB Plugin V2.1.6

[CTDB TOCID: 6VKiK7uv6TKVkFHxIMSqRFr5WqA-] found
Submit result: 6VKiK7uv6TKVkFHxIMSqRFr5WqA- has been confirmed
Track | CTDB Status
1 | (1/1) Accurately ripped
2 | (1/1) Accurately ripped
3 | (1/1) Accurately ripped
4 | (1/1) Accurately ripped
5 | (1/1) Accurately ripped
6 | (1/1) Accurately ripped


==== Log checksum C4CCB633A1EFB0B201186AC072DE075AFCF036D11265A6203827B1D2A0408FCD ====

[CUETools log; Date: 28.02.2018 15:15:58; Version: 2.1.4]
[CTDB TOCID: 6VKiK7uv6TKVkFHxIMSqRFr5WqA-] found.
Track | CTDB Status
1 | (3/3) Accurately ripped
2 | (3/3) Accurately ripped
3 | (3/3) Accurately ripped
4 | (3/3) Accurately ripped
5 | (3/3) Accurately ripped
6 | (3/3) Accurately ripped
[AccurateRip ID: 000a042c-0035ed41-4e09bc06] found.
Track [ CRC | V2 ] Status
01 [ef72e618|a59981cc] (0+3/3) Accurately ripped
02 [69aae0ad|3a22da61] (0+3/3) Accurately ripped
03 [d1679812|f07dd57e] (0+3/3) Accurately ripped
04 [0d926a43|2ae296db] (0+3/3) Accurately ripped
05 [6fa5902c|afe519b2] (0+3/3) Accurately ripped
06 [9d9143d5|f26e6b5a] (0+3/3) Accurately ripped

Track Peak [ CRC32 ] [W/O NULL] [ LOG ]
– 99,4 [4F250AF6] [A06D69A4] CRC32
01 99,3 [157FC13C] [B90D16F9]
02 99,2 [3C891107] [440FA6A2]
03 99,3 [7B245869] [7A17C311]
04 99,3 [80A5B3ED] [7B75F841]
05 99,3 [4F3EC6DA] [CC0B05A0]
06 99,4 [143A41B3] [D6C04F3D]

Thanks to fiks22

See also:
Kenny Drew Trio - Kenny's Music Still Live On [Recorded 1978-1992] [7 Albums] (2013)
Kenny Drew Trio + 1 - A Child Is Born [Recorded 1978] (2013)
Kenny Drew Trio + 1 - Hush-A-Bye [Recorded 1978] (2013)