Subcategories

Kenny Rogers - The Gambler (1978) & Kenny (1979) [2CD] [2009, Reissue]

Posted By: BlondStyle
Kenny Rogers - The Gambler (1978) & Kenny (1979) [2CD] [2009, Reissue]

Kenny Rogers - The Gambler (1978) & Kenny (1979) [2CD] [2009, Reissue]
Country, Pop/Rock, Disco | EAC Rip | FLAC, Img+CUE+LOG+Scans (JPEG) | 01:17:57 | 510,63 Mb
Label: Edsel Records (EU) | Cat.# EDSD 2041 | Released: 2009-07-14 (1978/1979)

2009 two CD set containing a pair of albums from the Country superstar, originally released on the United Artists and Liberty labels at the height of his worldwide popularity. Though Rogers achieved success at the tail end of the '60s with his band the First Edition, it wasn't until he fully crossed over into the Country market that international fame came calling. Ironically, his move away from the Pop charts actually brought him more success once Country Music began to crossover into the same market he had initially given up on. Contains Kenny's fifth and sixth United Artists albums, from 1978 and 1979. "The Gambler" sold five million copies in the US alone and features the #1 hit title song as well as 'She Believes In Me'. It was also the Country Music Association's 1979 Album Of The Year, while "Kenny" was voted Male Vocalist of 1979.
~Review by Edsel Records

Kenny Rogers - The Gambler (1978) & Kenny (1979) [2CD] [2009, Reissue]




Release of those albums: "The Gambler" - 1978, November [LP United Artists Records, Cat.# UA-LA934-H, USA; "Kenny" - 1979, September [LP United Artists Records, Cat.# LOO-979, USA]
Release of this CD: 2009, July, 14 [CD Edsel Records (EU), Cat.# EDSD 2041 / EAN: 740155204136]
Licensed courtesy of EMI Records Ltd. © 2009 Demon Music Group Ltd.
Disc 1 ℗ 1978, Disc 2 ℗ 1979 The copyright of those sound recordings is owned by Capitol Records Nashville.
Marketed by Edsel, a division of the Demon Music Group Ltd.
Manufactured in the EU.




Notes: This is the third of five Edsel packages that reissue the ten solo albums by country superstar Kenny Rogers, released on the United Artists and Liberty labels at the height of his wordwide popularity between 1976 and 1983.

Credits:

~The Gambler~
Arranged By [Strings] – Bill Justis
Composed By – Alex Harvey (tracks: 3 to 5), Curly Putman (tracks: 2), Don Cook (tracks: 2), Don Schlitz (tracks: 1), J. Richey (tracks: 7), Jeff Silbar (tracks: 8), Kenny Rogers (tracks: 11), Mickey Newbury (tracks: 10), Rafe VanHoy (tracks: 2), Sam Lober (tracks: 8), Sonny Throckmorton (tracks: 9), Steve Gibb (tracks: 6)
Engineer – Billy Sherrill
Producer – Larry Butler

~Kenny~
Arranged By [Strings] – Bill Justis, Edgar Struble (tracks: 10)
Artwork – Bill Burks
Backing Vocals – Bergen White, Bobby Daniels, Buzz Cason, Don Gant, Donna McElroy, Edgar Struble, Lea Jane Berinati, Steve Glassmeyer, Todd Cerney, Tom Brannon, Yvonne Godges
Engineer – Billy Sherrill, Harold Lee (tracks: 3, 8)
Guitar – Billy Sanford, Dave Kirby, Jerry Shook, Jimmy Capps, Johnny Chirstopher, Larry Keith, Randy Dorman, Ray Edenton, Reggie Young, Rick Harper, Steve Glassmeyer, Tommy Allsup
Producer – Larry Butler


This reissue

Coordinator [Project Co-ordinatipn] – Val Jennings
Design [CD Package] – Tony Hodsoll
Liner Notes – Chris Bolton
Mastered By [CD Mastering] – Peter Rynston
Photography By [Photo On Page 2] – Getty Images


Tracklist:

Disc 1 - "The Gambler" (1978):

01. The Gambler (03:37)
(Don Schlitz)
02. I Wish That I Could Hurt That Way Again (03:02)
(Rafe VanHoy, Don Cook, Curly Putman)
03. King Of Oak Street (05:10)
(Alex Harvey)
04. Makin' Music For Money (03:22)
(Alex Harvey)
05. Hoodooin' Of Miss Fannie Deberry (04:53)
(Alex Harvey)
06. She Believes In Me (04:19)
(Steve Gibb)
07. Tennessee Bottle (04:05)
(Jim Ritchey)
08. Sleep Tight, Goodnight Man (02:59)
(Sam Lorber, Jeff Silbar)
09. Little More Like Me (The Crucifixion) (02:55)
(Sonny Throckmorton)
10. San Francisco Mabel Joy (03:46)
(Mickey Newbury)
11. Morgana Jones (03:11)
(Kenny Rogers)

Disc 2 - "Kenny" (1979):

01. You Turn The Light On (03:06)
(L. Anderson, Sean Geyer)
02. You Decorated My Life (03:41)
(Deborah Kay Hupp, Robert E. Morrison)
03. She's A Mystery (02:58)
(Larry Keith, Steve Pippin)
04. Goodbye Marie (02:50)
(Dennis Linde, Mel McDaniel)
05. Tulsa Turnaround (02:55)
(Larry Collins, Paul Cotton, Alex Harvey)
06. I Want To Make You Smile (03:24)
(B. Medley)
07. Santiago Midnight Moonlight (03:18)
(John Porter McMeans)
08. One Man's Woman (03:48)
(Steve Glassmeyer)
09. In And Out Of Your Heart (03:28)
(Thomas Cain, Randy Cullers, Dennis Linde, Alan Rush)
10. Old Folks (02:45)
(Willard Robison)
11. Coward Of The County (04:23)
(Roger D. Bowling, Billy Ed Wheeler)

Отчёт EAC об извлечении, выполненном 4. февраля 2011, 20:50 для диска:
Kenny Rogers / "The Gambler"

Дисковод: PIONEER DVD-RW DVR-216D Adapter: 2 ID: 0
Режим чтения: Достоверный (C2: нет, Точный поток: да, Отключение кэша: да)
Коррекция смещения при чтении: -39
Способность читать области Lead-in и Lead-out : Нет

Выходной формат: Внутренние WAV-операции
44.100 Гц; 16 бит; стерео

Другие параметры:
Заполнение пропущенных сэмплов тишиной : Да
Удаление блоков с тишиной в начале и конце : Нет
Встроенный Win32-интерфейс для Win NT/2000


Характеристики диапазона извлечения и сообщения об ошибках
Выбранный диапазон
Имя файла I:\МУЗЫКА - Виталий\WAV - FLAC\Kenny Rogers\1978 The Gambler + 1979 Kenny (2009-EU)\1978 - The Gambler\Kenny Rogers - The Gambler .wav

Пиковый уровень 98.7 %
Качество диапазона 100.0 %
CRC 8A4D6B4E
Копирование… OK

Ошибок не произошло

Конец отчёта

Отчёт EAC об извлечении, выполненном 4. февраля 2011, 22:04 для диска:
Kenny Rogers / "Kenny"

Дисковод: PIONEER DVD-RW DVR-216D Adapter: 2 ID: 0
Режим чтения: Достоверный (C2: нет, Точный поток: да, Отключение кэша: да)
Коррекция смещения при чтении: -39
Способность читать области Lead-in и Lead-out : Нет

Выходной формат: Внутренние WAV-операции
44.100 Гц; 16 бит; стерео

Другие параметры:
Заполнение пропущенных сэмплов тишиной : Да
Удаление блоков с тишиной в начале и конце : Нет
Встроенный Win32-интерфейс для Win NT/2000


Характеристики диапазона извлечения и сообщения об ошибках
Выбранный диапазон
Имя файла I:\МУЗЫКА - Виталий\WAV - FLAC\Kenny Rogers\1978 The Gambler + 1979 Kenny (2009-EU)\1979 - Kenny\Kenny Rogers - Kenny .wav

Пиковый уровень 98.7 %
Качество диапазона 100.0 %
CRC D15B6231
Копирование… OK

Ошибок не произошло

Конец отчёта

––––––––––––––––––––––––––––––––––––––––
Analyzed: / The Gambler
––––––––––––––––––––––––––––––––––––––––

DR Peak RMS Duration Track
––––––––––––––––––––––––––––––––––––––––
DR14 -0.88 dB -17.37 dB 3:37 01-The Gambler
DR13 -1.83 dB -18.95 dB 3:02 02-I Wish I Could Hurt That Way Again
DR15 -0.74 dB -19.61 dB 5:10 03-King Of Oak Street
DR13 -0.11 dB -14.95 dB 3:22 04-Makin' Music For Money
DR15 -0.11 dB -18.54 dB 4:53 05-Hoodooin' Of Miss Fannie Deberry
DR13 -2.63 dB -18.69 dB 4:19 06-She Believes In Me
DR14 -0.32 dB -17.11 dB 4:05 07-Tennessee Bottle
DR13 -1.24 dB -17.17 dB 2:59 08-Sleep Tight, Goodnight Man
DR14 -0.69 dB -18.15 dB 2:55 09-Little More Like Me (The Crucifixion)
DR13 -0.26 dB -16.91 dB 3:46 10-San Francisco Mabel Joy
DR14 -0.21 dB -16.41 dB 3:11 11-Morgana Jones
––––––––––––––––––––––––––––––––––––––––

Number of tracks: 11
Official DR value: DR14

Samplerate: 44100 Hz
Channels: 2
Bits per sample: 16
Bitrate: 852 kbps
Codec: FLAC
================================================================================

––––––––––––––––––––––––––––––––––––––––
Analyzed: / Kenny
––––––––––––––––––––––––––––––––––––––––

DR Peak RMS Duration Track
––––––––––––––––––––––––––––––––––––––––
DR13 -1.57 dB -16.42 dB 3:06 01-You Turn The Light On
DR11 -1.31 dB -16.29 dB 3:41 02-You Decorated My Life
DR12 -0.92 dB -15.57 dB 2:58 03-She's A Mystery
DR13 -0.11 dB -16.74 dB 2:50 04-Goodbye Marie
DR13 -1.21 dB -16.84 dB 2:55 05-Tulsa Turnaround
DR13 -2.98 dB -21.10 dB 3:24 06-I Want To Make You Smile
DR13 -0.31 dB -16.10 dB 3:18 07-Santiago Midnight Moonlight
DR12 -2.80 dB -17.68 dB 3:48 08-One Man's Woman
DR12 -1.35 dB -16.12 dB 3:28 09-In And Out Of Your Heart
DR14 -3.08 dB -20.98 dB 2:45 10-Old Folks
DR14 -0.90 dB -16.58 dB 4:23 11-Coward Of The County
––––––––––––––––––––––––––––––––––––––––

Number of tracks: 11
Official DR value: DR13

Samplerate: 44100 Hz
Channels: 2
Bits per sample: 16
Bitrate: 851 kbps
Codec: FLAC
================================================================================

Thanks to modest_suetsky & his friend

See also:
Kenny Rogers - Love Will Turn You Around (1982) & We've Got Tonight (1983) [2CD] [2009, Reissue]
Kenny Rogers - Vote For Love: 30 All-Time Love Songs [2CD] (1996)
Kenny Rogers - The First 50 Years [3CD Box Set] (2009)

♫~Welcome To My Blog~♫

password: BlondStyle