Subcategories

Kenny Rogers - We've Got Tonight (1983) [1990, Reissue]

Posted By: BlondStyle
Kenny Rogers - We've Got Tonight (1983) [1990, Reissue]

Kenny Rogers - We've Got Tonight (1983) [1990, Reissue]
Pop/Rock, Country | EAC Rip | FLAC, Tracks+CUE+LOG+Scans (JPEG) | 36:18 | 205,46 Mb
Label: EMI-Manhattan Records (USA) | Cat.# CDP 7 48405 2 | Released: 1990-10-25 (1983)
Kenny Rogers - We've Got Tonight (1983) [1990, Reissue]

"We've Got Tonight" is the 14th studio album by Kenny Rogers, released in 1983. It is also his last with Liberty Records before signing with RCA Records. The title cut, a duet with Sheena Easton, was the debut single and became one of Rogers' signature hits, soaring to #1 on the country charts and #2 on the Adult Contemporary chart, reaching #6 on the Hot 100 chart. There were two other singles: "All My Life", which peaked at #13 on the country charts, though it fared at #3 in Canada, and "Scarlet Fever", which is lesser-known but still reached #5 and #4 in the US. and Canada, respectively. The title of the album comes from its signature track, written by Bob Seger and originating from his album, Stranger in Town. By comparison with Rogers' version, Seger's only reached #13 on the Hot 100, making Rogers' version better-known, five years after it was written. One song on the album that never became a single but still became one of Rogers' signature songs is the powerful "You Are So Beautiful". This track was placed at the end of the album as a tribute to his legions of female fans, and stands today as one of the songs that Kenny is known for. The song was written by Billy Preston and Bruce Fisher and originally appears on the 1974 Preston album The Kids and Me. Lionel Richie, who by now had been contributing a reasonable number of songs to Rogers, submitted the track "How Long" to this album. The album hit #3 on the country charts and #18 on the Billboard 200 charts. Despite lower rankings than many of his earlier releases, the album was still certified platinum in both the US and Canada.
~Wikipedia
When Kenny Rogers paired up with Scottish pop songstress Sheena Easton for "We've Got Tonight," the hit title track from this 1983 album, one could quibble about Easton's occasionally overwrought and bombastic performance, but there are a few moments of truly sublime vocal interplay. The album provides a little of Rogers' trademark storytelling with "Scarlet," and quite a bit of soaring balladry as heard on "All My Life," both of which were hits. You will be forgiven for thinking the album sounds a bit like Lionel Richie in places, since Richie contributes the song "How Long." Rogers ends the album with "You Are So Beautiful," a loving tribute to his legions of female fans, but male listeners may want to cut out early.
~Review by Greg Adams

Kenny Rogers - We've Got Tonight (1983) [1990, Reissue]

Kenny Rogers - We've Got Tonight (1983) [1990, Reissue]




Release of this album: 1983, March [LP Liberty, Cat.# LO-51143, USA]
Release of this CD: 1990, October, 25 [CD EMI-Manhattan Records (USA), Cat.# CDP 7 48405 2 (DIDX 2466), UPC: 077774840521]
©℗ 1983 EMI-Manhattan Records, a Division of Capitol Records, Inc.
Manufactured in the U.S.A. by Capitol Records, Inc., a subsidiary of Capitol industries-EMI, Inc.
Printed/Made in U.S.A.


Credits:

Art Direction – Henry Marquez
Design [Sleeve], Art Direction [Graphic Coordination] – Roy R. Guzman
Management – Ken Kragen
Mastered By – Doug Sax
Photography By – Matthew Rolston


Tracklist:

01. We've Got Tonight (duet with Sheena Easton) (03:55)
(Bob Seger)
02. Scarlet Fever (04:01)
(Mike Dekle)
03. Farther I Go (03:31)
(David MacKechnie, Kin Vassy)
04. No Dreams (03:28)
(Randy Goodrum)
05. Bad Enough (03:19)
(Dave Robbins, Jeff Silbar, Van Stephenson)
06. All My Life (03:54)
(Dave Robbins, Jeff Silbar, Van Stephenson)
07. How Long (03:55)
(Lionel Richie)
08. Love Love Love (03:27)
(Dick St. Nicklaus)
09. What I Learned from Loving You (03:56)
(James Hooker Brown, Jr., Russell Smith)
10. You Are So Beautiful (02:51)
(Bruce Fisher, Billy Preston)

Exact Audio Copy V1.3 from 2. September 2016

EAC extraction logfile from 30. September 2017, 17:52

Kenny Rogers / We`ve Got Tonight

Used drive : PIONEER BD-RW BDR-208D Adapter: 1 ID: 0

Read mode : Secure
Utilize accurate stream : Yes
Defeat audio cache : Yes
Make use of C2 pointers : No

Read offset correction : 667
Overread into Lead-In and Lead-Out : No
Fill up missing offset samples with silence : Yes
Delete leading and trailing silent blocks : No
Null samples used in CRC calculations : Yes
Used interface : Native Win32 interface for Win NT & 2000
Gap handling : Not detected, thus appended to previous track

Used output format : User Defined Encoder
Selected bitrate : 1024 kBit/s
Quality : High
Add ID3 tag : Yes
Command line compressor : C:\Program Files (x86)\Exact Audio Copy\Flac\flac.exe
Additional command line options : -T "artist=%artist%" -T "title=%title%" -T "album=%albumtitle%" -T "date=%year%" -T "tracknumber=%tracknr%" -T "genre=%genre%" -5 %source%


TOC of the extracted CD

Track | Start | Length | Start sector | End sector
––––––––––––––––––––––––––––-
1 | 0:00.00 | 3:55.22 | 0 | 17646
2 | 3:55.22 | 4:00.58 | 17647 | 35704
3 | 7:56.05 | 3:31.27 | 35705 | 51556
4 | 11:27.32 | 3:28.13 | 51557 | 67169
5 | 14:55.45 | 3:18.62 | 67170 | 82081
6 | 18:14.32 | 3:53.55 | 82082 | 99611
7 | 22:08.12 | 3:55.13 | 99612 | 117249
8 | 26:03.25 | 3:27.27 | 117250 | 132801
9 | 29:30.52 | 3:55.55 | 132802 | 150481
10 | 33:26.32 | 2:51.13 | 150482 | 163319


Track 1

Filename E:\DIGITAL\01.Kenny Rogers With Sheena Easton - We`ve Got Tonight.wav

Peak level 80.7 %
Extraction speed 4.1 X
Track quality 100.0 %
Copy CRC 658BB31F
Accurately ripped (confidence 1) [837A8ADA] (AR v2)
Copy OK

Track 2

Filename E:\DIGITAL\02.Kenny Rogers - Scarlet Fever.wav

Peak level 92.9 %
Extraction speed 5.3 X
Track quality 100.0 %
Copy CRC 4A9BD97D
Accurately ripped (confidence 1) [DBC761BB] (AR v2)
Copy OK

Track 3

Filename E:\DIGITAL\03.Kenny Rogers - Farther I Go.wav

Peak level 90.0 %
Extraction speed 5.5 X
Track quality 100.0 %
Copy CRC 7AC3CB20
Accurately ripped (confidence 1) [6F05C350] (AR v2)
Copy OK

Track 4

Filename E:\DIGITAL\04.Kenny Rogers - No Dreams.wav

Peak level 76.3 %
Extraction speed 5.1 X
Track quality 99.9 %
Copy CRC 05D1C1C2
Accurately ripped (confidence 1) [C3DB7B5E] (AR v2)
Copy OK

Track 5

Filename E:\DIGITAL\05.Kenny Rogers - Bad Enough.wav

Peak level 93.3 %
Extraction speed 6.0 X
Track quality 100.0 %
Copy CRC 94C98778
Accurately ripped (confidence 1) [97ADCA05] (AR v2)
Copy OK

Track 6

Filename E:\DIGITAL\06.Kenny Rogers - All Of My Life.wav

Peak level 81.0 %
Extraction speed 5.7 X
Track quality 99.9 %
Copy CRC 567B28CE
Accurately ripped (confidence 1) [57F3BBD5] (AR v2)
Copy OK

Track 7

Filename E:\DIGITAL\07.Kenny Rogers - How Long.wav

Peak level 62.5 %
Extraction speed 6.7 X
Track quality 100.0 %
Copy CRC F6EECD20
Accurately ripped (confidence 1) [67C1B539] (AR v2)
Copy OK

Track 8

Filename E:\DIGITAL\08.Kenny Rogers - Love, Love, Love.wav

Peak level 60.3 %
Extraction speed 6.8 X
Track quality 100.0 %
Copy CRC 98F7E3EE
Accurately ripped (confidence 1) [F59965A8] (AR v2)
Copy OK

Track 9

Filename E:\DIGITAL\09.Kenny Rogers - What I Learned From Loving You.wav

Peak level 71.7 %
Extraction speed 6.4 X
Track quality 99.9 %
Copy CRC 02C773B3
Accurately ripped (confidence 1) [B0A7FDF0] (AR v2)
Copy OK

Track 10

Filename E:\DIGITAL\10.Kenny Rogers - You Are So Beautiful.wav

Peak level 79.6 %
Extraction speed 7.0 X
Track quality 100.0 %
Copy CRC 0AAE6C25
Accurately ripped (confidence 1) [2BB0B1A7] (AR v2)
Copy OK


All tracks accurately ripped

No errors occurred

End of status report

–– CUETools DB Plugin V2.1.6

[CTDB TOCID: 6.sUD4reUFALSOqyQuXYr9JxMeE-] found
Submit result: 6.sUD4reUFALSOqyQuXYr9JxMeE- has been confirmed
Track | CTDB Status
1 | (4/4) Accurately ripped
2 | (4/4) Accurately ripped
3 | (4/4) Accurately ripped
4 | (4/4) Accurately ripped
5 | (4/4) Accurately ripped
6 | (4/4) Accurately ripped
7 | (4/4) Accurately ripped
8 | (4/4) Accurately ripped
9 | (4/4) Accurately ripped
10 | (4/4) Accurately ripped


==== Log checksum 456F36DBDE56B407134AEDA6B0FB56A3DA6BF0AB68E4E4884791F569D0485BFB ====

––––––––––––––––––––––––––––––––––––––––
Analyzed: Kenny Rogers With Sheena Easton / We`ve Got Tonight (1)
Kenny Rogers / We`ve Got Tonight (2-10)
––––––––––––––––––––––––––––––––––––––––

DR Peak RMS Duration Track
––––––––––––––––––––––––––––––––––––––––
DR13 -1.86 dB -18.89 dB 3:55 01-We`ve Got Tonight
DR14 -0.63 dB -18.23 dB 4:01 02-Scarlet Fever
DR16 -0.91 dB -19.62 dB 3:31 03-Farther I Go
DR14 -2.35 dB -20.42 dB 3:28 04-No Dreams
DR13 -0.60 dB -17.84 dB 3:19 05-Bad Enough
DR11 -1.82 dB -17.63 dB 3:54 06-All Of My Life
DR12 -4.08 dB -19.07 dB 3:55 07-How Long
DR13 -4.38 dB -20.89 dB 3:27 08-Love, Love, Love
DR13 -2.88 dB -19.20 dB 3:56 09-What I Learned From Loving You
DR14 -1.98 dB -21.25 dB 2:51 10-You Are So Beautiful
––––––––––––––––––––––––––––––––––––––––

Number of tracks: 10
Official DR value: DR13

Samplerate: 44100 Hz
Channels: 2
Bits per sample: 16
Bitrate: 704 kbps
Codec: FLAC
================================================================================

Thanks to original releaser

See also:

♫~Welcome To My Blog~♫

password: BlondStyle