Subcategories
Tags
Language
Tags

Kevin Griffiths, Phion, Orchestra of Gelderland & Overijssel - Andreas Romberg: Symphonies 1 & 3 (2020)

Posted By: ArlegZ
Kevin Griffiths, Phion, Orchestra of Gelderland & Overijssel - Andreas Romberg: Symphonies 1 & 3 (2020)

Kevin Griffiths, Phion, Orchestra of Gelderland & Overijssel - Andreas Romberg: Symphonies 1 & 3; Overture to "Die Großmut des Scipio" (2020)
EAC | FLAC | Image (Cue & Log) ~ 228 Mb | Total time: 49:39 | Scans included
Classical | Label: CPO | # 777 052-2 | Recorded: 2018

Andreas Romberg is now more than an insiders tip; he is a recognized composer situated on the interface between Classicism and Romanticism. Romberg was regarded as a celebrated violin virtuoso, concertmaster, and composer, and his stays in Paris, Vienna, Prague, and Italy spread his fame internationally. He met Ludwig van Beethoven, Joseph Haydn, and many other musical personalities of his times. A great deal of his oeuvre covering all sorts of different genres was forgotten, but this is slowly changing, primarily owing to the Arbeitsstelle Andreas Romberg at the University of Vechta, a research center that since 1993 has engaged in the systematic investigation of this composers works. Of his ten symphonies, only six are extant, and only four of them were printed during his lifetime. However, his symphonies were extremely popular when they were written. In 1817 the Allgemeine musikalische Zeitung praised what Haydn, Mozart, Beethoven, and Romberg have accomplished so far in this genre of musical works. With these words the author numbered Romberg among the absolute masters in this field. For quite some time the performance figures for Rombergs symphonies ranked second only to those for works by the Viennese Classicists. Now here it is: Vol. 1 with his Symphonies Nos. 1 and 3!

Performer:
Phion, Orchestra of Gelderland & Overijssel
Kevin Griffiths, conductor

Track List:
Andreas Romberg (1767-1821)
01. Overture to "Die Großmut des Scipio", Op. 54
Symphony No. 1 in E flat major, Op. 6
02. I. Adagio - Allegro con spirito
03. II. Andante
04. III. Menuetto. Vivace
05. IV. Finale. Presto
Symphony No. 3 in C Major, Op. 33
06. I. Adagio. Allegro vivace
07. II. Andantino
08. III. Menuetto
09. IV. Finale. Vivace


Exact Audio Copy V1.3 from 2. September 2016

EAC extraction logfile from 22. March 2021, 17:54

Kevin Griffiths, Phion, orchestra of Gelderland & Overijssel / Romberg - Symphonies 1 & 3

Used drive : HL-DT-STDVDRAM GH24NS95 Adapter: 1 ID: 0

Read mode : Secure
Utilize accurate stream : Yes
Defeat audio cache : Yes
Make use of C2 pointers : No

Read offset correction : 6
Overread into Lead-In and Lead-Out : No
Fill up missing offset samples with silence : Yes
Delete leading and trailing silent blocks : No
Null samples used in CRC calculations : Yes
Used interface : Native Win32 interface for Win NT & 2000

Used output format : User Defined Encoder
Selected bitrate : 768 kBit/s
Quality : High
Add ID3 tag : No
Command line compressor : C:\Program Files\Exact Audio Copy\FLAC\FLAC.EXE
Additional command line options : -6 -V -T "ARTIST=%artist%" -T "TITLE=%title%" -T "ALBUM=%albumtitle%" -T "DATE=%year%" -T "TRACKNUMBER=%tracknr%" -T "GENRE=%genre%" -T "COMMENT=%comment%" -T "BAND=%albuminterpret%" -T "ALBUMARTIST=%albuminterpret%" -T "COMPOSER=%composer%" %haslyrics%–tag-from-file=LYRICS="%lyricsfile%"%haslyrics% -T "DISCNUMBER=%cdnumber%" -T "TOTALDISCS=%totalcds%" -T "TOTALTRACKS=%numtracks%" %hascover%–picture="%coverfile%"%hascover% %source% -o %dest%


TOC of the extracted CD

Track | Start | Length | Start sector | End sector
––––––––––––––––––––––––––––-
1 | 0:00.00 | 5:24.24 | 0 | 24323
2 | 5:24.24 | 8:08.66 | 24324 | 60989
3 | 13:33.15 | 4:53.39 | 60990 | 83003
4 | 18:26.54 | 3:33.67 | 83004 | 99045
5 | 22:00.46 | 4:04.49 | 99046 | 117394
6 | 26:05.20 | 8:47.10 | 117395 | 156929
7 | 34:52.30 | 5:01.53 | 156930 | 179557
8 | 39:54.08 | 2:54.45 | 179558 | 192652
9 | 42:48.53 | 6:48.53 | 192653 | 223305


Range status and errors

Selected range

Filename C:\Program Files\Exact Audio Copy\Kevin Griffiths - Romberg - Symphonies 1 & 3.wav

Peak level 97.0 %
Extraction speed 1.8 X
Range quality 100.0 %
Test CRC 1779E9C1
Copy CRC 1779E9C1
Copy OK

No errors occurred


AccurateRip summary

Track 1 not present in database
Track 2 not present in database
Track 3 not present in database
Track 4 not present in database
Track 5 not present in database
Track 6 not present in database
Track 7 not present in database
Track 8 not present in database
Track 9 not present in database

None of the tracks are present in the AccurateRip database

End of status report

Kevin Griffiths, Phion, Orchestra of Gelderland & Overijssel - Andreas Romberg: Symphonies 1 & 3 (2020)

Thanks to the original releaser