Subcategories

Kim Wilde - Another Step (1986) 2CD Remastered Expanded 2010 [Re-Up]

Posted By: Designol
Kim Wilde - Another Step (1986) 2CD Remastered Expanded 2010 [Re-Up]

Kim Wilde - Another Step (1986) 2CD Remastered Expanded 2010
EAC | FLAC | Image (Cue&Log) ~ 1 Gb | Mp3 (CBR320) ~ 340 Mb | Scans ~ 218 Mb
Pop, Hi-NRG, New Wave | Label: Cherry Pop | # CR POP D55 | Time: 02:28:44

Kim Wilde’s fifth studio album originally released in 1986 finally gets the deluxe 2CD treatment courtesy of Cherry Pop Records. Features the International mega hit 'You Keep Me Hangin On' which reached No.1 in America, Canada, Australia and Norway, No.2 in the UK, Ireland and Switzerland and the Top 10 in Germany, Denmark, France and pretty much every country across Western Europe. Also includes the hit singles 'Schoolgirl', 'Say You Really Want Me' and 'Another Step'. The album itself reached No.40 in the USA, No.42 in Germany and No.73 in the UK. Now comes with 17 bonus tracks including many hard to find 12, 7, Club and Extended versions, all re-mastered by Tim Turan Again overseen by Kim’s webmaster Marcel Rijs, with in-depth liner notes by Steve Thorpe, the booklet contains lyrics to all the songs and pictures of all relevant singles and the whole package comes in its ORIGINAL LP artwork exactly what the fans have been asking for.

Kim Wilde - Another Step (1986) 2CD Remastered Expanded 2010 [Re-Up]



Tracklist:

CD1:

01. You Keep Me Hangin' On (04:15)
02. Hit Him (03:33)
03. Another Step (Closer To You) (03:23)
04. The Thrill Of It (03:56)
05. I've Got So Much Love (03:58)
06. Victim (04:03)
07. Schoolgirl (03:42)
08. Say You Really Want Me (03:43)
09. She Hasn't Got Time For You (04:16)
10. Brothers (04:49)
11. Missing (04:29)
12. How Do You Want My Love (03:57)
13. Don't Say Nothing's Changed (03:55)
14. Songs About Love (04:55)
15. Loving You (04:56)
16. Hold Back (03:58)
17. Another Step (Closer To You) (7' Version) (03:30)
18. Say You Really Want Me (UK 7' Version) (04:03)

CD2:

01. Schoolgirl (Head-Mastermix) (06:33)
02. You Keep Me Hangin' On (Wch Club Mix) (06:27)
03. You Keep Me Hangin' On (Wch Mix) (09:06)
04. Another Step (Closer To You) (Extended Mix) (05:53)
05. Say You Really Want Me (Extended Version) (06:34)
06. Say You Really Want Me (Video Re-Mix) (09:47)
07. Say You Really Want Me (David Todd Re-Mix) (05:44)
08. Say You Really Want Me (Radio Edit) (05:09)
09. Say You Really Want Me (Instrumental) (04:22)
10. Say You Really Want Me (Us 7' Version) (03:30)
11. Say You Really Want Me (Urban Version) (03:57)
12. Megamix (08:05)


Exact Audio Copy V0.99 prebeta 5 from 4. May 2009

EAC extraction logfile from 1. January 2013, 0:09

Kim Wilde / Another Step (CD 1)

Used drive : PIONEER DVD-RW DVR-112D Adapter: 0 ID: 1

Read mode : Secure
Utilize accurate stream : Yes
Defeat audio cache : Yes
Make use of C2 pointers : No

Read offset correction : 48
Overread into Lead-In and Lead-Out : No
Fill up missing offset samples with silence : Yes
Delete leading and trailing silent blocks : No
Null samples used in CRC calculations : Yes
Used interface : Installed external ASPI interface

Used output format : User Defined Encoder
Selected bitrate : 128 kBit/s
Quality : High
Add ID3 tag : No
Command line compressor : C:\Program Files\Exact Audio Copy\Flac\flac.exe
Additional command line options : -8 -V -T "ARTIST=%a" -T "TITLE=%t" -T "ALBUM=%g" -T "DATE=%y" -T "TRACKNUMBER=%n" -T "GENRE=%m" -T "COMMENT=EAC FLAC -8" %s


TOC of the extracted CD

Track | Start | Length | Start sector | End sector
––––––––––––––––––––––––––––-
1 | 0:00.00 | 4:15.26 | 0 | 19150
2 | 4:15.26 | 3:33.57 | 19151 | 35182
3 | 7:49.08 | 3:23.15 | 35183 | 50422
4 | 11:12.23 | 3:56.54 | 50423 | 68176
5 | 15:09.02 | 3:58.50 | 68177 | 86076
6 | 19:07.52 | 4:03.30 | 86077 | 104331
7 | 23:11.07 | 3:42.07 | 104332 | 120988
8 | 26:53.14 | 3:43.62 | 120989 | 137775
9 | 30:37.01 | 4:16.59 | 137776 | 157034
10 | 34:53.60 | 4:49.35 | 157035 | 178744
11 | 39:43.20 | 4:29.29 | 178745 | 198948
12 | 44:12.49 | 3:57.43 | 198949 | 216766
13 | 48:10.17 | 3:55.38 | 216767 | 234429
14 | 52:05.55 | 4:55.44 | 234430 | 256598
15 | 57:01.24 | 4:56.68 | 256599 | 278866
16 | 61:58.17 | 3:58.05 | 278867 | 296721
17 | 65:56.22 | 3:30.60 | 296722 | 312531
18 | 69:27.07 | 4:03.63 | 312532 | 330819


Range status and errors

Selected range

Filename F:\Kim Wilde - 1986 (2010) Another Step (2 CD)\CD 1\Kim Wilde - Another Step (CD 1).wav

Peak level 97.7 %
Range quality 100.0 %
Test CRC 925F1115
Copy CRC 925F1115
Copy OK

No errors occurred


AccurateRip summary

Track 1 accurately ripped (confidence 8) [275D2FD3]
Track 2 accurately ripped (confidence 8) [1912EDC0]
Track 3 accurately ripped (confidence 8) [60C44F81]
Track 4 accurately ripped (confidence 8) [B88C2630]
Track 5 accurately ripped (confidence 8) [D0A89244]
Track 6 accurately ripped (confidence 8) [970F46CF]
Track 7 accurately ripped (confidence 8) [1363B68C]
Track 8 accurately ripped (confidence 8) [CC27E478]
Track 9 accurately ripped (confidence 8) [382A3083]
Track 10 accurately ripped (confidence 8) [D0A23957]
Track 11 accurately ripped (confidence 8) [2F6AF22F]
Track 12 accurately ripped (confidence 8) [006934B8]
Track 13 accurately ripped (confidence 8) [F33F1F5C]
Track 14 accurately ripped (confidence 8) [00344E20]
Track 15 accurately ripped (confidence 8) [2BB15D06]
Track 16 accurately ripped (confidence 8) [DFC4B01C]
Track 17 accurately ripped (confidence 8) [2848DFF5]
Track 18 accurately ripped (confidence 8) [D9897BDB]

All tracks accurately ripped

End of status report

foobar2000 1.2 / Dynamic Range Meter 1.1.1
log date: 2014-03-12 21:54:36

––––––––––––––––––––––––––––––––––––––––
Analyzed: Kim Wilde / Another Step (CD 1)
––––––––––––––––––––––––––––––––––––––––

DR Peak RMS Duration Track
––––––––––––––––––––––––––––––––––––––––
DR9 -0.20 dB -10.18 dB 4:15 01-You Keep Me Hangin' On
DR8 -0.20 dB -9.84 dB 3:34 02-Hit Him
DR8 -0.20 dB -10.15 dB 3:23 03-Another Step (Closer To You)
DR9 -0.20 dB -10.51 dB 3:57 04-The Thrill Of It
DR8 -0.20 dB -10.15 dB 3:59 05-I've Got So Much Love
DR8 -0.20 dB -10.24 dB 4:03 06-Victim
DR9 -0.20 dB -10.13 dB 3:42 07-Schoolgirl
DR9 -0.20 dB -10.36 dB 3:44 08-Say You Really Want Me
DR9 -0.20 dB -11.57 dB 4:17 09-She Hasn't Got Time For You
DR10 -0.20 dB -12.21 dB 4:49 10-Brothers
DR10 -0.20 dB -12.75 dB 4:29 11-Missing
DR9 -0.20 dB -11.21 dB 3:58 12-How Do You Want My Love
DR8 -0.20 dB -10.70 dB 3:56 13-Don't Say Nothing's Changed
DR6 -0.20 dB -8.85 dB 4:56 14-Songs About Love
DR8 -0.20 dB -10.44 dB 4:57 15-Loving You
DR9 -0.20 dB -10.87 dB 3:58 16-Hold Back
DR9 -0.20 dB -11.19 dB 3:31 17-Another Step (Closer To You) (7' Version)
DR8 -0.20 dB -9.28 dB 4:04 18-Say You Really Want Me (UK 7' Version)
––––––––––––––––––––––––––––––––––––––––

Number of tracks: 18
Official DR value: DR9

Samplerate: 44100 Hz
Channels: 2
Bits per sample: 16
Bitrate: 947 kbps
Codec: FLAC
================================================================================


Exact Audio Copy V0.99 prebeta 5 from 4. May 2009

EAC extraction logfile from 1. January 2013, 0:59

Kim Wilde / Another Step (CD 2)

Used drive : PIONEER DVD-RW DVR-112D Adapter: 0 ID: 1

Read mode : Secure
Utilize accurate stream : Yes
Defeat audio cache : Yes
Make use of C2 pointers : No

Read offset correction : 48
Overread into Lead-In and Lead-Out : No
Fill up missing offset samples with silence : Yes
Delete leading and trailing silent blocks : No
Null samples used in CRC calculations : Yes
Used interface : Installed external ASPI interface

Used output format : User Defined Encoder
Selected bitrate : 128 kBit/s
Quality : High
Add ID3 tag : No
Command line compressor : C:\Program Files\Exact Audio Copy\Flac\flac.exe
Additional command line options : -8 -V -T "ARTIST=%a" -T "TITLE=%t" -T "ALBUM=%g" -T "DATE=%y" -T "TRACKNUMBER=%n" -T "GENRE=%m" -T "COMMENT=EAC FLAC -8" %s


TOC of the extracted CD

Track | Start | Length | Start sector | End sector
––––––––––––––––––––––––––––-
1 | 0:00.00 | 6:33.44 | 0 | 29518
2 | 6:33.44 | 6:27.04 | 29519 | 58547
3 | 13:00.48 | 9:06.13 | 58548 | 99510
4 | 22:06.61 | 5:53.26 | 99511 | 126011
5 | 28:00.12 | 6:34.34 | 126012 | 155595
6 | 34:34.46 | 9:47.28 | 155596 | 199648
7 | 44:21.74 | 5:44.66 | 199649 | 225514
8 | 50:06.65 | 5:09.41 | 225515 | 248730
9 | 55:16.31 | 4:22.70 | 248731 | 268450
10 | 59:39.26 | 3:30.52 | 268451 | 284252
11 | 63:10.03 | 3:57.40 | 284253 | 302067
12 | 67:07.43 | 8:05.46 | 302068 | 338488


Range status and errors

Selected range

Filename F:\Kim Wilde - 1986 (2010) Another Step (2 CD)\CD 2\Kim Wilde - Another Step (CD 2).wav

Peak level 97.7 %
Range quality 100.0 %
Test CRC 2F1DFBBF
Copy CRC 2F1DFBBF
Copy OK

No errors occurred


AccurateRip summary

Track 1 accurately ripped (confidence 8) [14374075]
Track 2 accurately ripped (confidence 8) [1EE022A5]
Track 3 accurately ripped (confidence 8) [A487550D]
Track 4 accurately ripped (confidence 8) [B8EEC68D]
Track 5 accurately ripped (confidence 8) [DE6561AA]
Track 6 accurately ripped (confidence 8) [61953B0B]
Track 7 accurately ripped (confidence 8) [1E8C279A]
Track 8 accurately ripped (confidence 8) [5BEA2EB2]
Track 9 accurately ripped (confidence 8) [AA435FE4]
Track 10 accurately ripped (confidence 8) [9DC2BDB0]
Track 11 accurately ripped (confidence 8) [156251CC]
Track 12 accurately ripped (confidence 8) [277A736B]

All tracks accurately ripped

End of status report

foobar2000 1.2 / Dynamic Range Meter 1.1.1
log date: 2014-03-12 21:54:57

––––––––––––––––––––––––––––––––––––––––
Analyzed: Kim Wilde / Another Step (CD 2)
––––––––––––––––––––––––––––––––––––––––

DR Peak RMS Duration Track
––––––––––––––––––––––––––––––––––––––––
DR9 -0.20 dB -10.92 dB 6:34 01-Schoolgirl (Head-Mastermix)
DR8 -0.20 dB -10.08 dB 6:27 02-You Keep Me Hangin' On (Wch Club Mix)
DR9 -0.20 dB -11.31 dB 9:06 03-You Keep Me Hangin' On (Wch Mix)
DR8 -0.20 dB -10.39 dB 5:53 04-Another Step (Closer To You) (Extended Mix)
DR8 -0.20 dB -9.96 dB 6:34 05-Say You Really Want Me (Extended Version)
DR8 -0.20 dB -9.97 dB 9:47 06-Say You Really Want Me (Video Re-Mix)
DR9 -0.20 dB -10.01 dB 5:45 07- Say You Really Want Me (David Todd Re-Mix)
DR8 -0.20 dB -9.70 dB 5:10 08-Say You Really Want Me (Radio Edit)
DR9 -0.20 dB -10.00 dB 4:23 09-Say You Really Want Me (Instrumental)
DR9 -0.20 dB -10.06 dB 3:31 10-Say You Really Want Me (Us 7' Version)
DR8 -0.20 dB -9.03 dB 3:58 11-Say You Really Want Me (Urban Version)
DR7 -0.20 dB -8.81 dB 8:06 12-Megamix
––––––––––––––––––––––––––––––––––––––––

Number of tracks: 12
Official DR value: DR8

Samplerate: 44100 Hz
Channels: 2
Bits per sample: 16
Bitrate: 1002 kbps
Codec: FLAC
================================================================================

Kim Wilde - Another Step (1986) 2CD Remastered Expanded 2010 [Re-Up]

Kim Wilde - Another Step (1986) 2CD Remastered Expanded 2010 [Re-Up]

All thanks to original releaser - MiniMax1

More interesting music in My Blog