Subcategories

Kim Wilde - Greatest Hits (1996)

Posted By: v3122
Kim Wilde - Greatest Hits (1996)

Kim Wilde - Greatest Hits (1996)
Pop | EAC Rip | Flac (Image) + Cue + Log | MP3 CBR 320Kbps | 20 Tracks
Covers, Booklet -> 142 Mb | Toshiba-EMI | TOCP-53356 | ~506 + 174 Mb | RS.com + Turbobit

Kim Wilde - Greatest Hits (1996)

Kim Wilde:

Kim Wilde was born on November 18, 1960 in London. To her father musician, it owes his passion for the music and in 1980 his/her brother proposes to him to record individual who will make the turn of the world "Kids In America". Its devastating look and its voice allure a large audience and Kim Wilde leaves a first album éponyme in 1981 followed the following year of a second opus ("Select") who contains some splendid pearls, worthy representing new-wave fashion: "Cambodia and" View From The Bridge ". The continuation is alas a little less pink and except some rare titles, the albums of Kim Wilde do not meet any more same success. In 1995, it leaves its last album, then cease for a few times the music to devote itself to its life of family: she Marie in 1996 and gives rise to two children in 1998 and 2000.

Since, Kim Wilde shares her time between her family, plates of televisions or it sings its old tubes and studios where it takes part in guest stars in recording (in particular with Nena in 2002 for the tube "Anywhere, Anyplace, Anytime"). The year 2006 marks the great return of the beautiful blond on the front of the scene with new a opus ("Never Say Never") on which it mixes with happiness its old re-recorded titles and a few new pieces sublîmes, a true enchantment to find large Kim Wilde.
Kim Wilde - Greatest Hits (1996):

Kim Wilde - Greatest Hits (1996)

Tracklist:

01. Kids In America [0:03:25.70]
02. Chequered Love [0:03:21.55]
03. Water On Glass [0:03:35.40]
04. Everything We Know [0:03:42.25]
05. Young Heroes [0:03:16.10]
06. 2-6-5-8-0 [0:03:10.65]
07. You'll Never Be So Wrong [0:04:10.30]
08. Falling Out [0:04:02.55]
09. Tuning In Tuning On [0:04:24.10]
10. Ego [0:04:10.65]
11. View From A Bridge [0:03:30.40]
12. Words Fell Down [0:03:31.00]
13. Action City [0:03:23.15]
14. Just A Feeling [0:04:09.65]
15. Chaos At The Airport [0:03:18.30]
16. Take Me Tonight [0:03:51.60]
17. Can You Come Over [0:03:34.65]
18. Wendy Said [0:03:48.60]
19. Our Town [0:03:47.20]
20. Cambodia - Reprise [0:03:19.52]

Exact Audio Copy V0.99 prebeta 5 from 4. May 2009

EAC extraction logfile from 29. November 2009, 23:10

Kim Wilde / Greatest hits

Used drive : ASUS DRW-1608P Adapter: 2 ID: 0

Read mode : Secure
Utilize accurate stream : Yes
Defeat audio cache : Yes
Make use of C2 pointers : No

Read offset correction : 48
Overread into Lead-In and Lead-Out : No
Fill up missing offset samples with silence : Yes
Delete leading and trailing silent blocks : No
Null samples used in CRC calculations : Yes
Used interface : Installed external ASPI interface

Used output format : User Defined Encoder
Selected bitrate : 1024 kBit/s
Quality : High
Add ID3 tag : No
Command line compressor : C:\Program Files (x86)\Exact Audio Copy\Flac\flac.exe
Additional command line options : -5 -V -T "ARTIST=%a" -T "TITLE=%t" -T "ALBUM=%g" -T "DATE=%y" -T "TRACKNUMBER=%n" -T "GENRE=%m" -T "COMMENT=EAC FLAC -5" %s


TOC of the extracted CD

Track | Start | Length | Start sector | End sector
––––––––––––––––––––––––––––-
1 | 0:00.00 | 3:25.70 | 0 | 15444
2 | 3:25.70 | 3:21.55 | 15445 | 30574
3 | 6:47.50 | 3:35.40 | 30575 | 46739
4 | 10:23.15 | 3:42.25 | 46740 | 63414
5 | 14:05.40 | 3:16.10 | 63415 | 78124
6 | 17:21.50 | 3:10.65 | 78125 | 92439
7 | 20:32.40 | 4:10.30 | 92440 | 111219
8 | 24:42.70 | 4:02.55 | 111220 | 129424
9 | 28:45.50 | 4:24.10 | 129425 | 149234
10 | 33:09.60 | 4:10.65 | 149235 | 168049
11 | 37:20.50 | 3:30.40 | 168050 | 183839
12 | 40:51.15 | 3:31.00 | 183840 | 199664
13 | 44:22.15 | 3:23.15 | 199665 | 214904
14 | 47:45.30 | 4:09.65 | 214905 | 233644
15 | 51:55.20 | 3:18.30 | 233645 | 248524
16 | 55:13.50 | 3:51.60 | 248525 | 265909
17 | 59:05.35 | 3:34.65 | 265910 | 282024
18 | 62:40.25 | 3:48.60 | 282025 | 299184
19 | 66:29.10 | 3:47.20 | 299185 | 316229
20 | 70:16.30 | 3:19.52 | 316230 | 331206


Range status and errors

Selected range

Filename F:\Kim Wilde - 1981-1982 (Japan)\Kim Wilde - Greatest hits.wav

Peak level 98.3 %
Range quality 99.9 %
Test CRC FCEE7643
Copy CRC FCEE7643
Copy OK

No errors occurred


AccurateRip summary

Track 1 not present in database
Track 2 not present in database
Track 3 not present in database
Track 4 not present in database
Track 5 not present in database
Track 6 not present in database
Track 7 not present in database
Track 8 not present in database
Track 9 not present in database
Track 10 not present in database
Track 11 not present in database
Track 12 not present in database
Track 13 not present in database
Track 14 not present in database
Track 15 not present in database
Track 16 not present in database
Track 17 not present in database
Track 18 not present in database
Track 19 not present in database
Track 20 not present in database

None of the tracks are present in the AccurateRip database

End of status report


AUDIOCHECKER v2.0 beta (build 457) - by Dester - opdester@freemail.hu
~~~~~~~~~~~~~~~~~~~~~~~~~~~~~~~~~~
-=== DO NOT EDIT THIS FILE! ===-

Path: …\Kim Wilde - 1981-1982 - Greatest Hits (Japan)

1 -=- Kim Wilde - Greatest hits.flac -=- CDDA (100%)

28697412

Download Kim Wilde - Greatest Hits (1996):

RS.com - All links:
Kim Wilde - Greatest Hits - All RS links

Turbobit - Lossless:
Kim Wilde - Greatest Hits - One file

Turbobit - MP3-320:
Kim Wilde - Greatest Hits - One file

Turbobit - Covers:
Kim Wilde - Greatest Hits - One file

pass:
www.avaxhome.ws

All thanks goes to the original releasers to bvstudio