Subcategories

Kinetic Element - Powered by Light (2009)

Posted By: gribovar
Kinetic Element - Powered by Light (2009)

Kinetic Element - Powered by Light (2009)
EAC Rip | FLAC (image+.cue+log) - 468 MB | MP3 CBR 320 kbps (LAME 3.93) - 178 MB | Covers (15 MB) included
Genre: Neo-Progressive Rock | RAR 3% Rec. | Label: Self-released

Following in the tradition of the progressive rock giants of the 1970s, heavy with symphonic keyboards and virtuoso guitar work, Kinetic Element takes the listener on a lightspeed journey of the heart. "Powered by Light" has been nominated by the ProgAwards for Best Debut CD of 2009!
Kinetic Element is a symphonic progressive rock group that began in the heart and mind of Mike Visaggio, a multi-keyboardist in Richmond VA. After recording his first solo album, Starship Universe, in 2006, Mike began the arduous task of making himself known to the prog world. Selected to perform at the Pop Montreal Festival in 2006, Mike was driven to put together a band, and Kinetic Element was born. They have been playing out at selected venues and aiming to shake up the music scene with some classic prog/classic/new age style thunder. After 23 days during May, June and July 2009 in Sound of Music Studio in Richmond and a day at The Kitchen Mastering in Chapel Hill NC, their CD "Powered by Light" finished and is available.

Tracklist:
01. Riding in Time
02. The Ascent
03. Now and Forever
04. Peace of Mind, Peace of Heart
05. Meditation
06. Reconciliation
07. See the Children

Total time: 01:09:17

Exact Audio Copy V1.0 beta 3 from 29. August 2011

Отчёт EAC об извлечении, выполненном 16. августа 2013, 16:54

Kinetic Element / Powered by Light

Дисковод: ASUS BW-12D1S-U Adapter: 1 ID: 1

Режим чтения : Достоверность
Использование точного потока : Да
Отключение кэша аудио : Да
Использование указателей C2 : Нет

Коррекция смещения при чтении : 667
Способность читать области Lead-in и Lead-out : Да
Заполнение пропущенных сэмплов тишиной : Да
Удаление блоков с тишиной в начале и конце : Нет
При вычислениях CRC использовались нулевые сэмплы : Да
Интерфейс : Встроенный Win32-интерфейс для Win NT/2000

Выходной формат : Пользовательский кодировщик
Выбранный битрейт : 1024 kBit/s
Качество : Высокий
Добавление ID3-тега : Нет
Утилита сжатия : C:\Program Files (x86)\Exact Audio Copy\Flac\flac.exe
Дополнительные параметры : -V -8 -T "Date=%year%" -T "Genre=%genre%" %source%


TOC извлечённого CD

Трек | Старт | Длительность | Начальный сектор | Конечный сектор
––––––––––––––––––––––––––––––––––-
1 | 0:00.00 | 9:06.19 | 0 | 40968
2 | 9:06.19 | 8:20.47 | 40969 | 78515
3 | 17:26.66 | 7:29.19 | 78516 | 112209
4 | 24:56.10 | 12:20.70 | 112210 | 167779
5 | 37:17.05 | 5:53.48 | 167780 | 194302
6 | 43:10.53 | 16:07.58 | 194303 | 266885
7 | 59:18.36 | 9:58.04 | 266886 | 311739


Характеристики диапазона извлечения и сообщения об ошибках

Выбранный диапазон

Имя файла E:\cd\Kinetic Element (2009) - Powered by Light\Kinetic Element - Powered by Light.wav

Пиковый уровень 100.0 %
Скорость извлечения 8.0 X
Качество диапазона 100.0 %
CRC теста 83F48DA8
CRC копии 83F48DA8
Копирование… OK

Ошибок не произошло

Конец отчёта

–– CUETools DB Plugin V2.1.3

[CTDB TOCID: T2rfoMxan_hT0426qMmNPRTS2B8-] found, Submit result: T2rfoMxan_hT0426qMmNPRTS2B8- has been confirmed
[42639cf5] (1/1) Accurately ripped

[CUETools log; Date: 29.11.2017 10:54:54; Version: 2.1.4]
[CTDB TOCID: T2rfoMxan_hT0426qMmNPRTS2B8-] found.
Track | CTDB Status
1 | (3/3) Accurately ripped
2 | (3/3) Accurately ripped
3 | (3/3) Accurately ripped
4 | (3/3) Accurately ripped
5 | (3/3) Accurately ripped
6 | (3/3) Accurately ripped
7 | (3/3) Accurately ripped
[AccurateRip ID: 0011e3b4-006cd7ef-66103c07] found.
Track [ CRC | V2 ] Status
01 [6109b37c|0b2c146d] (0+5/5) Accurately ripped
02 [d3036687|e76f8183] (0+5/5) Accurately ripped
03 [618ff2c2|18d04acd] (0+5/5) Accurately ripped
04 [cde96eb2|bf1482aa] (0+5/5) Accurately ripped
05 [fbc76be4|0e205702] (0+5/5) Accurately ripped
06 [7e09f4b5|d55b4a38] (0+5/5) Accurately ripped
07 [ce0ca216|6181c1b4] (0+5/5) Accurately ripped

Track Peak [ CRC32 ] [W/O NULL] [ LOG ]
– 100,0 [83F48DA8] [47FAB129] CRC32
01 100,0 [1DC32E74] [BD13EC48]
02 99,8 [1D9E731E] [11F7ADA8]
03 100,0 [D4D214F7] [019B8283]
04 100,0 [001C6911] [3D68C72B]
05 90,7 [3C5B9A4D] [5D1542AF]
06 100,0 [2C2B5F53] [DE10E353]
07 99,4 [F72C932E] [BE590109]

Thanks to Pasheka-Pacheka