Subcategories

King Crimson: The Road to Red (2013) [21CD + DVD + 2Blu-Ray Box Set] Re-up

Posted By: v3122
King Crimson: The Road to Red (2013) [21CD + DVD + 2Blu-Ray Box Set] Re-up

King Crimson: The Road to Red (2013)
EAC | Flac(Image) + Cue + Log & MP3 CBR 320Kbps
21CD | Panegyric, KCCBX7 | ~ 6925 or 2581 Mb | Scans(jpg, 600dpi) -> 537 Mb
DVD9: NTSC, MPEG-2 Video, 720x480, 16:9, 15.1 Mbps, 29.970 fps | PCM, 1024 Kbps, 32.0 KHz, 2ch -> 6.45 Gb
2xBlu-Ray: BMDV, LPCM 9216Kbps, 2.0, 192Khz, 24bit / 4608Kbps, 2.0, 96Khz, 24bit / 13824Kbps, 5.1, 96Khz, 24bit
DTS-HD Master Audio 6493Kbps, 5.1, 96Khz -> ~ 27.0 Gb + 28.8 Gb
Progressive Rock / Psychedelic Rock | King Crimson 40th Anniversary Series

20 CDs of live material from the final USA & Canadian 1974 tours, 1 CD of studio material featuring a new stereo mix of “Red”, 1 DVD featuring various versions of the “USA” album/concert, 2 Blu-Ray discs featuring 5 complete concerts in high-resolution stereo + “Red” in hi-res stereo & 5.1, 12” box with booklet, memorabilia & album prints. Limited to one worldwide pressing.

~ amazon
King Crimson: The Road to Red (2013):

King Crimson: The Road to Red (2013) [21CD + DVD + 2Blu-Ray Box Set] Re-up

Tracklist CD1:
Veterans Memorial Coliseum, Columbus, OH, 28 April 1974

01. The Great Deceiver* - 3:24
02. Lament - 4:18
03. Improv - 2:26
04. Exiles - 6:48
05. Fracture - 11:07
06. Easy Money - 6:46
07. Improv - 2:41
08. The Night Watch - 4:52
09. RF Announcement - 2:05

Exact Audio Copy V1.0 beta 3 from 29. August 2011

EAC extraction logfile from 6. November 2013, 8:27

King Crimson / The Road To Red CD1 - 28 April 1974 Columbus

Used drive : ATAPI iHAS124 B Adapter: 2 ID: 0

Read mode : Secure
Utilize accurate stream : Yes
Defeat audio cache : Yes
Make use of C2 pointers : No

Read offset correction : 6
Overread into Lead-In and Lead-Out : No
Fill up missing offset samples with silence : Yes
Delete leading and trailing silent blocks : No
Null samples used in CRC calculations : Yes
Used interface : Native Win32 interface for Win NT & 2000

Used output format : User Defined Encoder
Selected bitrate : 1024 kBit/s
Quality : High
Add ID3 tag : No
Command line compressor : C:\Program Files (x86)\Exact Audio Copy\FLAC\FLAC.EXE
Additional command line options : -8 -V -T "ARTIST=%artist%" -T "TITLE=%title%" -T "ALBUM=%albumtitle%" -T "DATE=%year%" -T "TRACKNUMBER=%tracknr%" -T "GENRE=%genre%" -T "PERFORMER=%albuminterpret%" -T "COMPOSER=%composer%" %haslyrics%–tag-from-file=LYRICS="%lyricsfile%"%haslyrics% -T "ALBUMARTIST=%albumartist%" -T "DISCNUMBER=%cdnumber%" -T "TOTALDISCS=%totalcds%" -T "TOTALTRACKS=%numtracks%" -T "COMMENT=%comment%" %source% -o %dest%


TOC of the extracted CD

Track | Start | Length | Start sector | End sector
––––––––––––––––––––––––––––-
1 | 0:00.00 | 3:23.54 | 0 | 15278
2 | 3:23.54 | 4:18.06 | 15279 | 34634
3 | 7:41.60 | 2:26.22 | 34635 | 45606
4 | 10:08.07 | 6:48.34 | 45607 | 76240
5 | 16:56.41 | 11:06.46 | 76241 | 126236
6 | 28:03.12 | 6:46.27 | 126237 | 156713
7 | 34:49.39 | 2:40.69 | 156714 | 168782
8 | 37:30.33 | 4:52.27 | 168783 | 190709
9 | 42:22.60 | 2:05.22 | 190710 | 200106


Range status and errors

Selected range

Filename G:\CD\King Crimson - The Road To Red CD1.wav

Peak level 97.0 %
Extraction speed 5.4 X
Range quality 100.0 %
Test CRC 80A38975
Copy CRC 80A38975
Copy OK

No errors occurred


AccurateRip summary

Track 1 not present in database
Track 2 not present in database
Track 3 not present in database
Track 4 not present in database
Track 5 not present in database
Track 6 not present in database
Track 7 not present in database
Track 8 not present in database
Track 9 not present in database

None of the tracks are present in the AccurateRip database

End of status report

Tracklist CD2:
Stanley Theatre, Pittsburgh, PA, 29 April 1974, Part1

01. Walk On No Pussyfooting - 0:57
02. The Great Deceiver - 3:42
03. Lament - 4:59
04. Improv Bartley Butsford - 3:12
05. Exiles - 6:46
06. Fracture - 11:12
07. Easy Money - 6:36
08. Improv Daniel Dust - 4:09
09. The Night Watch - 4:35

Exact Audio Copy V1.0 beta 3 from 29. August 2011

EAC extraction logfile from 6. November 2013, 9:43

King Crimson / The Road To Red CD2 - 29 April 1974 Pittsburgh Part1

Used drive : ATAPI iHAS124 B Adapter: 2 ID: 0

Read mode : Secure
Utilize accurate stream : Yes
Defeat audio cache : Yes
Make use of C2 pointers : No

Read offset correction : 6
Overread into Lead-In and Lead-Out : No
Fill up missing offset samples with silence : Yes
Delete leading and trailing silent blocks : No
Null samples used in CRC calculations : Yes
Used interface : Native Win32 interface for Win NT & 2000

Used output format : User Defined Encoder
Selected bitrate : 1024 kBit/s
Quality : High
Add ID3 tag : No
Command line compressor : C:\Program Files (x86)\Exact Audio Copy\FLAC\FLAC.EXE
Additional command line options : -8 -V -T "ARTIST=%artist%" -T "TITLE=%title%" -T "ALBUM=%albumtitle%" -T "DATE=%year%" -T "TRACKNUMBER=%tracknr%" -T "GENRE=%genre%" -T "PERFORMER=%albuminterpret%" -T "COMPOSER=%composer%" %haslyrics%–tag-from-file=LYRICS="%lyricsfile%"%haslyrics% -T "ALBUMARTIST=%albumartist%" -T "DISCNUMBER=%cdnumber%" -T "TOTALDISCS=%totalcds%" -T "TOTALTRACKS=%numtracks%" -T "COMMENT=%comment%" %source% -o %dest%


TOC of the extracted CD

Track | Start | Length | Start sector | End sector
––––––––––––––––––––––––––––-
1 | 0:00.00 | 0:57.17 | 0 | 4291
2 | 0:57.17 | 3:41.67 | 4292 | 20933
3 | 4:39.09 | 4:59.08 | 20934 | 43366
4 | 9:38.17 | 3:12.18 | 43367 | 57784
5 | 12:50.35 | 6:46.37 | 57785 | 88271
6 | 19:36.72 | 11:11.41 | 88272 | 138637
7 | 30:48.38 | 6:36.20 | 138638 | 168357
8 | 37:24.58 | 4:09.37 | 168358 | 187069
9 | 41:34.20 | 4:34.64 | 187070 | 207683


Range status and errors

Selected range

Filename G:\CD\King Crimson - The Road To Red CD2.wav

Peak level 100.0 %
Extraction speed 5.5 X
Range quality 100.0 %
Test CRC 97BE89B9
Copy CRC 97BE89B9
Copy OK

No errors occurred


AccurateRip summary

Track 1 not present in database
Track 2 not present in database
Track 3 not present in database
Track 4 not present in database
Track 5 not present in database
Track 6 not present in database
Track 7 not present in database
Track 8 not present in database
Track 9 not present in database

None of the tracks are present in the AccurateRip database

End of status report

Tracklist CD3:
Stanley Theatre, Pittsburgh, PA, 29 April 1974, Part2

01. Dr Diamond - 5:17
02. Starless - 12:25
03. Improv Wilton Carpet - 5:53
04. The Talking Drum - 5:29
05. Larks Tongues In Aspic Pt II - 10:27
06. 21st Century Schizoid Man - 9:50

Exact Audio Copy V1.0 beta 3 from 29. August 2011

EAC extraction logfile from 6. November 2013, 9:24

King Crimson / The Road To Red CD3 - 29 April 1974 Pittsburgh Part2

Used drive : ATAPI iHAS124 B Adapter: 2 ID: 0

Read mode : Secure
Utilize accurate stream : Yes
Defeat audio cache : Yes
Make use of C2 pointers : No

Read offset correction : 6
Overread into Lead-In and Lead-Out : No
Fill up missing offset samples with silence : Yes
Delete leading and trailing silent blocks : No
Null samples used in CRC calculations : Yes
Used interface : Native Win32 interface for Win NT & 2000

Used output format : User Defined Encoder
Selected bitrate : 1024 kBit/s
Quality : High
Add ID3 tag : No
Command line compressor : C:\Program Files (x86)\Exact Audio Copy\FLAC\FLAC.EXE
Additional command line options : -8 -V -T "ARTIST=%artist%" -T "TITLE=%title%" -T "ALBUM=%albumtitle%" -T "DATE=%year%" -T "TRACKNUMBER=%tracknr%" -T "GENRE=%genre%" -T "PERFORMER=%albuminterpret%" -T "COMPOSER=%composer%" %haslyrics%–tag-from-file=LYRICS="%lyricsfile%"%haslyrics% -T "ALBUMARTIST=%albumartist%" -T "DISCNUMBER=%cdnumber%" -T "TOTALDISCS=%totalcds%" -T "TOTALTRACKS=%numtracks%" -T "COMMENT=%comment%" %source% -o %dest%


TOC of the extracted CD

Track | Start | Length | Start sector | End sector
––––––––––––––––––––––––––––-
1 | 0:00.00 | 5:17.28 | 0 | 23802
2 | 5:17.28 | 12:24.50 | 23803 | 79652
3 | 17:42.03 | 5:53.29 | 79653 | 106156
4 | 23:35.32 | 5:28.38 | 106157 | 130794
5 | 29:03.70 | 10:27.01 | 130795 | 177820
6 | 39:30.71 | 9:49.52 | 177821 | 222047


Range status and errors

Selected range

Filename G:\CD\King Crimson - The Road To Red CD3.wav

Peak level 100.0 %
Extraction speed 5.6 X
Range quality 100.0 %
Test CRC EC8364D2
Copy CRC EC8364D2
Copy OK

No errors occurred


AccurateRip summary

Track 1 not present in database
Track 2 not present in database
Track 3 not present in database
Track 4 not present in database
Track 5 not present in database
Track 6 not present in database

None of the tracks are present in the AccurateRip database

End of status report

Tracklist CD4:
Hofheinz Pavilion, Houston, TX, 5 June 1974

01. The Great Deceiver* - 2:32
02. Lament - 4:12
03. Improv - 2:03
04. Exiles - 6:29
05. Fracture - 10:56
06. Starless - 11:40
07. The Talking Drum - 5:49
08. Larks Tongues In Aspic Pt II* - 4:22

Exact Audio Copy V1.0 beta 3 from 29. August 2011

EAC extraction logfile from 6. November 2013, 10:03

King Crimson / The Road To Red CD4 - 5 June 1974 Houston

Used drive : ATAPI iHAS124 B Adapter: 2 ID: 0

Read mode : Secure
Utilize accurate stream : Yes
Defeat audio cache : Yes
Make use of C2 pointers : No

Read offset correction : 6
Overread into Lead-In and Lead-Out : No
Fill up missing offset samples with silence : Yes
Delete leading and trailing silent blocks : No
Null samples used in CRC calculations : Yes
Used interface : Native Win32 interface for Win NT & 2000

Used output format : User Defined Encoder
Selected bitrate : 1024 kBit/s
Quality : High
Add ID3 tag : No
Command line compressor : C:\Program Files (x86)\Exact Audio Copy\FLAC\FLAC.EXE
Additional command line options : -8 -V -T "ARTIST=%artist%" -T "TITLE=%title%" -T "ALBUM=%albumtitle%" -T "DATE=%year%" -T "TRACKNUMBER=%tracknr%" -T "GENRE=%genre%" -T "PERFORMER=%albuminterpret%" -T "COMPOSER=%composer%" %haslyrics%–tag-from-file=LYRICS="%lyricsfile%"%haslyrics% -T "ALBUMARTIST=%albumartist%" -T "DISCNUMBER=%cdnumber%" -T "TOTALDISCS=%totalcds%" -T "TOTALTRACKS=%numtracks%" -T "COMMENT=%comment%" %source% -o %dest%


TOC of the extracted CD

Track | Start | Length | Start sector | End sector
––––––––––––––––––––––––––––-
1 | 0:00.00 | 2:31.69 | 0 | 11393
2 | 2:31.69 | 4:12.06 | 11394 | 30299
3 | 6:44.00 | 2:03.14 | 30300 | 39538
4 | 8:47.14 | 6:29.30 | 39539 | 68743
5 | 15:16.44 | 10:56.34 | 68744 | 117977
6 | 26:13.03 | 11:40.37 | 117978 | 170514
7 | 37:53.40 | 5:48.48 | 170515 | 196662
8 | 43:42.13 | 4:21.64 | 196663 | 216301


Range status and errors

Selected range

Filename G:\CD\King Crimson - The Road To Red CD4.wav

Peak level 93.6 %
Extraction speed 5.5 X
Range quality 100.0 %
Test CRC 682372B9
Copy CRC 682372B9
Copy OK

No errors occurred


AccurateRip summary

Track 1 not present in database
Track 2 not present in database
Track 3 not present in database
Track 4 not present in database
Track 5 not present in database
Track 6 not present in database
Track 7 not present in database
Track 8 not present in database

None of the tracks are present in the AccurateRip database

End of status report

Tracklist CD5:
Tarrant County Convention Centre, Fort Worth, TX, 6 June 1974

01. Walk On No Pussyfooting - 1:41
02. Easy Money - 5:39
03. Lament - 4:50
04. Fracture - 11:09
05. Improv - 6:40
06. The Talking Drum - 5:20
07. Larks Tongues In Aspic Pt II - 6:37
08. 21st Century Schizoid Man - 7:05

Exact Audio Copy V1.0 beta 3 from 29. August 2011

EAC extraction logfile from 6. November 2013, 10:40

King Crimson / The Road To Red CD5 - 6 June 1974 Fort Worth

Used drive : ATAPI iHAS124 B Adapter: 2 ID: 0

Read mode : Secure
Utilize accurate stream : Yes
Defeat audio cache : Yes
Make use of C2 pointers : No

Read offset correction : 6
Overread into Lead-In and Lead-Out : No
Fill up missing offset samples with silence : Yes
Delete leading and trailing silent blocks : No
Null samples used in CRC calculations : Yes
Used interface : Native Win32 interface for Win NT & 2000

Used output format : User Defined Encoder
Selected bitrate : 1024 kBit/s
Quality : High
Add ID3 tag : No
Command line compressor : C:\Program Files (x86)\Exact Audio Copy\FLAC\FLAC.EXE
Additional command line options : -8 -V -T "ARTIST=%artist%" -T "TITLE=%title%" -T "ALBUM=%albumtitle%" -T "DATE=%year%" -T "TRACKNUMBER=%tracknr%" -T "GENRE=%genre%" -T "PERFORMER=%albuminterpret%" -T "COMPOSER=%composer%" %haslyrics%–tag-from-file=LYRICS="%lyricsfile%"%haslyrics% -T "ALBUMARTIST=%albumartist%" -T "DISCNUMBER=%cdnumber%" -T "TOTALDISCS=%totalcds%" -T "TOTALTRACKS=%numtracks%" -T "COMMENT=%comment%" %source% -o %dest%


TOC of the extracted CD

Track | Start | Length | Start sector | End sector
––––––––––––––––––––––––––––-
1 | 0:00.00 | 1:41.05 | 0 | 7579
2 | 1:41.05 | 5:39.02 | 7580 | 33006
3 | 7:20.07 | 4:49.66 | 33007 | 54747
4 | 12:09.73 | 11:09.28 | 54748 | 104950
5 | 23:19.26 | 6:39.67 | 104951 | 134942
6 | 29:59.18 | 5:19.39 | 134943 | 158906
7 | 35:18.57 | 6:36.54 | 158907 | 188660
8 | 41:55.36 | 7:04.42 | 188661 | 220502


Range status and errors

Selected range

Filename G:\CD\King Crimson - The Road To Red CD5.wav

Peak level 100.0 %
Extraction speed 5.6 X
Range quality 100.0 %
Test CRC F05C031B
Copy CRC F05C031B
Copy OK

No errors occurred


AccurateRip summary

Track 1 not present in database
Track 2 not present in database
Track 3 not present in database
Track 4 not present in database
Track 5 not present in database
Track 6 not present in database
Track 7 not present in database
Track 8 not present in database

None of the tracks are present in the AccurateRip database

End of status report

Tracklist CD6:
Fairground Arena, Oklahoma City, OK, 7 June 1974

01. The Great Deceiver* - 2:51
02. Lament - 5:09
03. Improv - 2:06
04. Exiles - 6:49
05. Fracture - 10:52
06. Starless - 11:57
07. Improv - 3:23
08. The Talking Drum - 3:47
09. The Talking Drum Insert - 2:35
10. Larks Tongues In Aspic Pt II* - 5:21

Exact Audio Copy V1.0 beta 3 from 29. August 2011

EAC extraction logfile from 6. November 2013, 21:31

King Crimson / The Road To Red CD6 - 7 June 1974 Oklahoma

Used drive : ATAPI iHAS124 B Adapter: 2 ID: 0

Read mode : Secure
Utilize accurate stream : Yes
Defeat audio cache : Yes
Make use of C2 pointers : No

Read offset correction : 6
Overread into Lead-In and Lead-Out : No
Fill up missing offset samples with silence : Yes
Delete leading and trailing silent blocks : No
Null samples used in CRC calculations : Yes
Used interface : Native Win32 interface for Win NT & 2000

Used output format : User Defined Encoder
Selected bitrate : 1024 kBit/s
Quality : High
Add ID3 tag : No
Command line compressor : C:\Program Files (x86)\Exact Audio Copy\FLAC\FLAC.EXE
Additional command line options : -8 -V -T "ARTIST=%artist%" -T "TITLE=%title%" -T "ALBUM=%albumtitle%" -T "DATE=%year%" -T "TRACKNUMBER=%tracknr%" -T "GENRE=%genre%" -T "PERFORMER=%albuminterpret%" -T "COMPOSER=%composer%" %haslyrics%–tag-from-file=LYRICS="%lyricsfile%"%haslyrics% -T "ALBUMARTIST=%albumartist%" -T "DISCNUMBER=%cdnumber%" -T "TOTALDISCS=%totalcds%" -T "TOTALTRACKS=%numtracks%" -T "COMMENT=%comment%" %source% -o %dest%


TOC of the extracted CD

Track | Start | Length | Start sector | End sector
––––––––––––––––––––––––––––-
1 | 0:00.00 | 2:51.12 | 0 | 12836
2 | 2:51.12 | 5:09.18 | 12837 | 36029
3 | 8:00.30 | 2:06.12 | 36030 | 45491
4 | 10:06.42 | 6:48.59 | 45492 | 76150
5 | 16:55.26 | 10:51.41 | 76151 | 125016
6 | 27:46.67 | 11:56.48 | 125017 | 178764
7 | 39:43.40 | 3:22.61 | 178765 | 193975
8 | 43:06.26 | 3:46.47 | 193976 | 210972
9 | 46:52.73 | 2:35.33 | 210973 | 222630
10 | 49:28.31 | 5:20.38 | 222631 | 246668


Range status and errors

Selected range

Filename G:\CD\King Crimson - The Road To Red CD6.wav

Peak level 93.9 %
Extraction speed 5.7 X
Range quality 100.0 %
Test CRC 925F4D04
Copy CRC 925F4D04
Copy OK

No errors occurred


AccurateRip summary

Track 1 not present in database
Track 2 not present in database
Track 3 not present in database
Track 4 not present in database
Track 5 not present in database
Track 6 not present in database
Track 7 not present in database
Track 8 not present in database
Track 9 not present in database
Track 10 not present in database

None of the tracks are present in the AccurateRip database

End of status report

Tracklist CD7:
Civil Auditorium, El Paso, TX, 8 June 1974

01. Larks Tongues In Aspic Pt II* - 6:04
02. Lament - 4:25
03. Improv - 2:34
04. Exiles - 7:20
05. Easy Money - 5:54
06. Fracture - 11:03
07. RF Announcement - 1:25
08. Starless Pt I* - 7:31
09. Starless Pt II* - 2:51

Exact Audio Copy V1.0 beta 3 from 29. August 2011

EAC extraction logfile from 6. November 2013, 11:18

King Crimson / The Road To Red CD7 - 8 June 1974 El Paso

Used drive : ATAPI iHAS124 B Adapter: 2 ID: 0

Read mode : Secure
Utilize accurate stream : Yes
Defeat audio cache : Yes
Make use of C2 pointers : No

Read offset correction : 6
Overread into Lead-In and Lead-Out : No
Fill up missing offset samples with silence : Yes
Delete leading and trailing silent blocks : No
Null samples used in CRC calculations : Yes
Used interface : Native Win32 interface for Win NT & 2000

Used output format : User Defined Encoder
Selected bitrate : 1024 kBit/s
Quality : High
Add ID3 tag : No
Command line compressor : C:\Program Files (x86)\Exact Audio Copy\FLAC\FLAC.EXE
Additional command line options : -8 -V -T "ARTIST=%artist%" -T "TITLE=%title%" -T "ALBUM=%albumtitle%" -T "DATE=%year%" -T "TRACKNUMBER=%tracknr%" -T "GENRE=%genre%" -T "PERFORMER=%albuminterpret%" -T "COMPOSER=%composer%" %haslyrics%–tag-from-file=LYRICS="%lyricsfile%"%haslyrics% -T "ALBUMARTIST=%albumartist%" -T "DISCNUMBER=%cdnumber%" -T "TOTALDISCS=%totalcds%" -T "TOTALTRACKS=%numtracks%" -T "COMMENT=%comment%" %source% -o %dest%


TOC of the extracted CD

Track | Start | Length | Start sector | End sector
––––––––––––––––––––––––––––-
1 | 0:00.00 | 6:03.55 | 0 | 27279
2 | 6:03.55 | 4:25.15 | 27280 | 47169
3 | 10:28.70 | 2:34.11 | 47170 | 58730
4 | 13:03.06 | 7:20.16 | 58731 | 91746
5 | 20:23.22 | 5:53.52 | 91747 | 118273
6 | 26:16.74 | 11:03.37 | 118274 | 168035
7 | 37:20.36 | 1:24.71 | 168036 | 174406
8 | 38:45.32 | 7:31.09 | 174407 | 208240
9 | 46:16.41 | 2:51.36 | 208241 | 221101


Range status and errors

Selected range

Filename G:\CD\King Crimson - The Road To Red CD7.wav

Peak level 93.4 %
Extraction speed 5.6 X
Range quality 100.0 %
Test CRC 58C29DFB
Copy CRC 58C29DFB
Copy OK

No errors occurred


AccurateRip summary

Track 1 not present in database
Track 2 not present in database
Track 3 not present in database
Track 4 not present in database
Track 5 not present in database
Track 6 not present in database
Track 7 not present in database
Track 8 not present in database
Track 9 not present in database

None of the tracks are present in the AccurateRip database

End of status report

Tracklist CD8:
Coliseum, Denver, CO, 16 June 1974

01. The Great Deceiver - 3:49
02. Lament - 4:11
03. Exiles - 6:45
04. Easy Money - 5:29
05. Starless - 11:54
06. The Talking Drum* - 5:26

Exact Audio Copy V1.0 beta 3 from 29. August 2011

EAC extraction logfile from 6. November 2013, 19:27

King Crimson / The Road To Red CD8 - 16 June 1974 Denver

Used drive : ATAPI iHAS124 B Adapter: 2 ID: 0

Read mode : Secure
Utilize accurate stream : Yes
Defeat audio cache : Yes
Make use of C2 pointers : No

Read offset correction : 6
Overread into Lead-In and Lead-Out : No
Fill up missing offset samples with silence : Yes
Delete leading and trailing silent blocks : No
Null samples used in CRC calculations : Yes
Used interface : Native Win32 interface for Win NT & 2000

Used output format : User Defined Encoder
Selected bitrate : 1024 kBit/s
Quality : High
Add ID3 tag : No
Command line compressor : C:\Program Files (x86)\Exact Audio Copy\FLAC\FLAC.EXE
Additional command line options : -8 -V -T "ARTIST=%artist%" -T "TITLE=%title%" -T "ALBUM=%albumtitle%" -T "DATE=%year%" -T "TRACKNUMBER=%tracknr%" -T "GENRE=%genre%" -T "PERFORMER=%albuminterpret%" -T "COMPOSER=%composer%" %haslyrics%–tag-from-file=LYRICS="%lyricsfile%"%haslyrics% -T "ALBUMARTIST=%albumartist%" -T "DISCNUMBER=%cdnumber%" -T "TOTALDISCS=%totalcds%" -T "TOTALTRACKS=%numtracks%" -T "COMMENT=%comment%" %source% -o %dest%


TOC of the extracted CD

Track | Start | Length | Start sector | End sector
––––––––––––––––––––––––––––-
1 | 0:00.00 | 3:48.54 | 0 | 17153
2 | 3:48.54 | 4:10.60 | 17154 | 35963
3 | 7:59.39 | 6:44.65 | 35964 | 66328
4 | 14:44.29 | 5:29.00 | 66329 | 91003
5 | 20:13.29 | 11:53.54 | 91004 | 144532
6 | 32:07.08 | 5:25.39 | 144533 | 168946


Range status and errors

Selected range

Filename G:\CD\King Crimson - The Road To Red CD8.wav

Peak level 93.2 %
Extraction speed 5.2 X
Range quality 99.9 %
Test CRC 832DF3D9
Copy CRC 832DF3D9
Copy OK

No errors occurred


AccurateRip summary

Track 1 not present in database
Track 2 not present in database
Track 3 not present in database
Track 4 not present in database
Track 5 not present in database
Track 6 not present in database

None of the tracks are present in the AccurateRip database

End of status report

Tracklist CD9:
Performing Arts Centre, Milwaukee, WI, 22 June 1974

01. Larks Tongues In Aspic Pt II* - 6:06
02. Lament - 4:23
03. Improv - 1:38
04. Exiles - 6:57
05. Improv - 8:27
06. The Night Watch - 4:42
07. Starless - 12:27

Exact Audio Copy V1.0 beta 3 from 29. August 2011

EAC extraction logfile from 6. November 2013, 19:52

King Crimson / The Road To Red CD9 - 22 June 1974 Milwaukee

Used drive : ATAPI iHAS124 B Adapter: 2 ID: 0

Read mode : Secure
Utilize accurate stream : Yes
Defeat audio cache : Yes
Make use of C2 pointers : No

Read offset correction : 6
Overread into Lead-In and Lead-Out : No
Fill up missing offset samples with silence : Yes
Delete leading and trailing silent blocks : No
Null samples used in CRC calculations : Yes
Used interface : Native Win32 interface for Win NT & 2000

Used output format : User Defined Encoder
Selected bitrate : 1024 kBit/s
Quality : High
Add ID3 tag : No
Command line compressor : C:\Program Files (x86)\Exact Audio Copy\FLAC\FLAC.EXE
Additional command line options : -8 -V -T "ARTIST=%artist%" -T "TITLE=%title%" -T "ALBUM=%albumtitle%" -T "DATE=%year%" -T "TRACKNUMBER=%tracknr%" -T "GENRE=%genre%" -T "PERFORMER=%albuminterpret%" -T "COMPOSER=%composer%" %haslyrics%–tag-from-file=LYRICS="%lyricsfile%"%haslyrics% -T "ALBUMARTIST=%albumartist%" -T "DISCNUMBER=%cdnumber%" -T "TOTALDISCS=%totalcds%" -T "TOTALTRACKS=%numtracks%" -T "COMMENT=%comment%" %source% -o %dest%


TOC of the extracted CD

Track | Start | Length | Start sector | End sector
––––––––––––––––––––––––––––-
1 | 0:00.00 | 6:06.35 | 0 | 27484
2 | 6:06.35 | 4:23.05 | 27485 | 47214
3 | 10:29.40 | 1:37.65 | 47215 | 54554
4 | 12:07.30 | 6:56.61 | 54555 | 85815
5 | 19:04.16 | 8:26.54 | 85816 | 123819
6 | 27:30.70 | 4:42.33 | 123820 | 145002
7 | 32:13.28 | 12:27.00 | 145003 | 201027


Range status and errors

Selected range

Filename G:\CD\King Crimson - The Road To Red CD9.wav

Peak level 88.5 %
Extraction speed 5.5 X
Range quality 100.0 %
Test CRC 79672756
Copy CRC 79672756
Copy OK

No errors occurred


AccurateRip summary

Track 1 not present in database
Track 2 not present in database
Track 3 not present in database
Track 4 not present in database
Track 5 not present in database
Track 6 not present in database
Track 7 not present in database

None of the tracks are present in the AccurateRip database

End of status report

Tracklist CD10:
Aquinas College, Grand Rapids, MI, 23 June 1974

01. Larks Tongues In Aspic Pt II* - 6:00
02. Lament - 4:12
03. Improv - 1:19
04. Exiles - 6:05
05. Easy Money* - 1:30
06. Improv - 4:18
07. The Great Deceiver - 3:46
08. Fracture - 11:09
09. Starless - 12:24

Exact Audio Copy V1.0 beta 3 from 29. August 2011

EAC extraction logfile from 6. November 2013, 20:25

King Crimson / The Road To Red CD10 - 23 June 1974 Grand Rapids

Used drive : ATAPI iHAS124 B Adapter: 2 ID: 0

Read mode : Secure
Utilize accurate stream : Yes
Defeat audio cache : Yes
Make use of C2 pointers : No

Read offset correction : 6
Overread into Lead-In and Lead-Out : No
Fill up missing offset samples with silence : Yes
Delete leading and trailing silent blocks : No
Null samples used in CRC calculations : Yes
Used interface : Native Win32 interface for Win NT & 2000

Used output format : User Defined Encoder
Selected bitrate : 1024 kBit/s
Quality : High
Add ID3 tag : No
Command line compressor : C:\Program Files (x86)\Exact Audio Copy\FLAC\FLAC.EXE
Additional command line options : -8 -V -T "ARTIST=%artist%" -T "TITLE=%title%" -T "ALBUM=%albumtitle%" -T "DATE=%year%" -T "TRACKNUMBER=%tracknr%" -T "GENRE=%genre%" -T "PERFORMER=%albuminterpret%" -T "COMPOSER=%composer%" %haslyrics%–tag-from-file=LYRICS="%lyricsfile%"%haslyrics% -T "ALBUMARTIST=%albumartist%" -T "DISCNUMBER=%cdnumber%" -T "TOTALDISCS=%totalcds%" -T "TOTALTRACKS=%numtracks%" -T "COMMENT=%comment%" %source% -o %dest%


TOC of the extracted CD

Track | Start | Length | Start sector | End sector
––––––––––––––––––––––––––––-
1 | 0:00.00 | 5:59.44 | 0 | 26968
2 | 5:59.44 | 4:12.36 | 26969 | 45904
3 | 10:12.05 | 1:19.07 | 45905 | 51836
4 | 11:31.12 | 6:04.63 | 51837 | 79199
5 | 17:36.00 | 1:29.43 | 79200 | 85917
6 | 19:05.43 | 4:18.16 | 85918 | 105283
7 | 23:23.59 | 3:45.61 | 105284 | 122219
8 | 27:09.45 | 11:08.69 | 122220 | 172388
9 | 38:18.39 | 12:23.44 | 172389 | 228157


Range status and errors

Selected range

Filename G:\CD\King Crimson - The Road To Red CD10.wav

Peak level 92.0 %
Extraction speed 5.6 X
Range quality 99.9 %
Test CRC CA52D4DA
Copy CRC CA52D4DA
Copy OK

No errors occurred


AccurateRip summary

Track 1 not present in database
Track 2 not present in database
Track 3 not present in database
Track 4 not present in database
Track 5 not present in database
Track 6 not present in database
Track 7 not present in database
Track 8 not present in database
Track 9 not present in database

None of the tracks are present in the AccurateRip database

End of status report

Tracklist CD11:
Massey Hall, Toronto, Ontario, 24 June 1974, Part 1

01. Walk On No Pussyfooting - 1:32
02. Larks Tongues In Aspic Pt II - 6:16
03. Lament - 5:08
04. Exiles - 8:24
05. Improv The Golden Walnut - 11:39
06. The Night Watch - 4:37
07. Fracture - 11:09

Exact Audio Copy V1.0 beta 3 from 29. August 2011

EAC extraction logfile from 6. November 2013, 21:04

King Crimson / The Road To Red CD11 - 24 June 1974 Toronto Pt 1

Used drive : ATAPI iHAS124 B Adapter: 2 ID: 0

Read mode : Secure
Utilize accurate stream : Yes
Defeat audio cache : Yes
Make use of C2 pointers : No

Read offset correction : 6
Overread into Lead-In and Lead-Out : No
Fill up missing offset samples with silence : Yes
Delete leading and trailing silent blocks : No
Null samples used in CRC calculations : Yes
Used interface : Native Win32 interface for Win NT & 2000

Used output format : User Defined Encoder
Selected bitrate : 1024 kBit/s
Quality : High
Add ID3 tag : No
Command line compressor : C:\Program Files (x86)\Exact Audio Copy\FLAC\FLAC.EXE
Additional command line options : -8 -V -T "ARTIST=%artist%" -T "TITLE=%title%" -T "ALBUM=%albumtitle%" -T "DATE=%year%" -T "TRACKNUMBER=%tracknr%" -T "GENRE=%genre%" -T "PERFORMER=%albuminterpret%" -T "COMPOSER=%composer%" %haslyrics%–tag-from-file=LYRICS="%lyricsfile%"%haslyrics% -T "ALBUMARTIST=%albumartist%" -T "DISCNUMBER=%cdnumber%" -T "TOTALDISCS=%totalcds%" -T "TOTALTRACKS=%numtracks%" -T "COMMENT=%comment%" %source% -o %dest%


TOC of the extracted CD

Track | Start | Length | Start sector | End sector
––––––––––––––––––––––––––––-
1 | 0:00.00 | 1:31.43 | 0 | 6867
2 | 1:31.43 | 6:16.09 | 6868 | 35076
3 | 7:47.52 | 5:07.38 | 35077 | 58139
4 | 12:55.15 | 8:23.51 | 58140 | 95915
5 | 21:18.66 | 11:39.28 | 95916 | 148368
6 | 32:58.19 | 4:36.64 | 148369 | 169132
7 | 37:35.08 | 11:08.63 | 169133 | 219295


Range status and errors

Selected range

Filename G:\CD\King Crimson - The Road To Red CD11.wav

Peak level 91.6 %
Extraction speed 5.4 X
Range quality 99.9 %
Test CRC 0A16FDD8
Copy CRC 0A16FDD8
Copy OK

No errors occurred


AccurateRip summary

Track 1 not present in database
Track 2 not present in database
Track 3 not present in database
Track 4 not present in database
Track 5 not present in database
Track 6 not present in database
Track 7 not present in database

None of the tracks are present in the AccurateRip database

End of status report

Tracklist CD12:
Massey Hall, Toronto, Ontario, 24 June 1974, Part 2

01. Improv Clueless And Slightly Slack - 9:59
02. Easy Money - 7:12
03. Starless - 14:53
04. 21st Century Schizoid Man - 9:35

Exact Audio Copy V1.0 beta 3 from 29. August 2011

EAC extraction logfile from 6. November 2013, 21:47

King Crimson / The Road To Red CD12 - 24 June 1974 Toronto Pt 2

Used drive : ATAPI iHAS124 B Adapter: 2 ID: 0

Read mode : Secure
Utilize accurate stream : Yes
Defeat audio cache : Yes
Make use of C2 pointers : No

Read offset correction : 6
Overread into Lead-In and Lead-Out : No
Fill up missing offset samples with silence : Yes
Delete leading and trailing silent blocks : No
Null samples used in CRC calculations : Yes
Used interface : Native Win32 interface for Win NT & 2000

Used output format : User Defined Encoder
Selected bitrate : 1024 kBit/s
Quality : High
Add ID3 tag : No
Command line compressor : C:\Program Files (x86)\Exact Audio Copy\FLAC\FLAC.EXE
Additional command line options : -8 -V -T "ARTIST=%artist%" -T "TITLE=%title%" -T "ALBUM=%albumtitle%" -T "DATE=%year%" -T "TRACKNUMBER=%tracknr%" -T "GENRE=%genre%" -T "PERFORMER=%albuminterpret%" -T "COMPOSER=%composer%" %haslyrics%–tag-from-file=LYRICS="%lyricsfile%"%haslyrics% -T "ALBUMARTIST=%albumartist%" -T "DISCNUMBER=%cdnumber%" -T "TOTALDISCS=%totalcds%" -T "TOTALTRACKS=%numtracks%" -T "COMMENT=%comment%" %source% -o %dest%


TOC of the extracted CD

Track | Start | Length | Start sector | End sector
––––––––––––––––––––––––––––-
1 | 0:00.00 | 9:58.40 | 0 | 44889
2 | 9:58.40 | 7:11.63 | 44890 | 77277
3 | 17:10.28 | 14:52.55 | 77278 | 144232
4 | 32:03.08 | 9:35.25 | 144233 | 187382


Range status and errors

Selected range

Filename G:\CD\King Crimson - The Road To Red CD12.wav

Peak level 95.5 %
Extraction speed 5.4 X
Range quality 100.0 %
Test CRC 032CA4B1
Copy CRC 032CA4B1
Copy OK

No errors occurred


AccurateRip summary

Track 1 not present in database
Track 2 not present in database
Track 3 not present in database
Track 4 not present in database

None of the tracks are present in the AccurateRip database

End of status report

Tracklist CD13:
Convention Center, Quebec City, Quebec, 25 June 1974

01. 21st Century Schizoid Man* - 7:03
02. Lament - 4:17
03. Improv - 1:19
04. Exiles - 7:13
05. Easy Money - 7:07
06. Improv - 6:29
07. Fracture - 10:55
08. Starless* - 10:40

Exact Audio Copy V1.0 beta 3 from 29. August 2011

EAC extraction logfile from 6. November 2013, 22:10

King Crimson / The Road To Red CD13 - 25 June 1974 Quebec

Used drive : ATAPI iHAS124 B Adapter: 2 ID: 0

Read mode : Secure
Utilize accurate stream : Yes
Defeat audio cache : Yes
Make use of C2 pointers : No

Read offset correction : 6
Overread into Lead-In and Lead-Out : No
Fill up missing offset samples with silence : Yes
Delete leading and trailing silent blocks : No
Null samples used in CRC calculations : Yes
Used interface : Native Win32 interface for Win NT & 2000

Used output format : User Defined Encoder
Selected bitrate : 1024 kBit/s
Quality : High
Add ID3 tag : No
Command line compressor : C:\Program Files (x86)\Exact Audio Copy\FLAC\FLAC.EXE
Additional command line options : -8 -V -T "ARTIST=%artist%" -T "TITLE=%title%" -T "ALBUM=%albumtitle%" -T "DATE=%year%" -T "TRACKNUMBER=%tracknr%" -T "GENRE=%genre%" -T "PERFORMER=%albuminterpret%" -T "COMPOSER=%composer%" %haslyrics%–tag-from-file=LYRICS="%lyricsfile%"%haslyrics% -T "ALBUMARTIST=%albumartist%" -T "DISCNUMBER=%cdnumber%" -T "TOTALDISCS=%totalcds%" -T "TOTALTRACKS=%numtracks%" -T "COMMENT=%comment%" %source% -o %dest%


TOC of the extracted CD

Track | Start | Length | Start sector | End sector
––––––––––––––––––––––––––––-
1 | 0:00.00 | 7:03.27 | 0 | 31751
2 | 7:03.27 | 4:17.35 | 31752 | 51061
3 | 11:20.62 | 1:19.11 | 51062 | 56997
4 | 12:39.73 | 7:12.74 | 56998 | 89471
5 | 19:52.72 | 7:07.10 | 89472 | 121506
6 | 27:00.07 | 6:28.40 | 121507 | 150646
7 | 33:28.47 | 10:55.07 | 150647 | 199778
8 | 44:23.54 | 10:40.22 | 199779 | 247800


Range status and errors

Selected range

Filename G:\CD\King Crimson - The Road To Red CD13.wav

Peak level 99.4 %
Extraction speed 5.8 X
Range quality 100.0 %
Test CRC 578F74A9
Copy CRC 578F74A9
Copy OK

No errors occurred


AccurateRip summary

Track 1 not present in database
Track 2 not present in database
Track 3 not present in database
Track 4 not present in database
Track 5 not present in database
Track 6 not present in database
Track 7 not present in database
Track 8 not present in database

None of the tracks are present in the AccurateRip database

End of status report

Tracklist CD14:
Kennedy Centre, Washington, DC, 27 June 1974

01. Lament - 4:25
02. Improv - 1:48
03. Exiles - 6:46
04. Easy Money - 8:28
05. Improv - 3:11
06. Fracture - 10:55
07. Starless - 13:01

Exact Audio Copy V1.0 beta 3 from 29. August 2011

EAC extraction logfile from 6. November 2013, 22:28

King Crimson / The Road To Red CD14 - 27 June 1974 Washington

Used drive : ATAPI iHAS124 B Adapter: 2 ID: 0

Read mode : Secure
Utilize accurate stream : Yes
Defeat audio cache : Yes
Make use of C2 pointers : No

Read offset correction : 6
Overread into Lead-In and Lead-Out : No
Fill up missing offset samples with silence : Yes
Delete leading and trailing silent blocks : No
Null samples used in CRC calculations : Yes
Used interface : Native Win32 interface for Win NT & 2000

Used output format : User Defined Encoder
Selected bitrate : 1024 kBit/s
Quality : High
Add ID3 tag : No
Command line compressor : C:\Program Files (x86)\Exact Audio Copy\FLAC\FLAC.EXE
Additional command line options : -8 -V -T "ARTIST=%artist%" -T "TITLE=%title%" -T "ALBUM=%albumtitle%" -T "DATE=%year%" -T "TRACKNUMBER=%tracknr%" -T "GENRE=%genre%" -T "PERFORMER=%albuminterpret%" -T "COMPOSER=%composer%" %haslyrics%–tag-from-file=LYRICS="%lyricsfile%"%haslyrics% -T "ALBUMARTIST=%albumartist%" -T "DISCNUMBER=%cdnumber%" -T "TOTALDISCS=%totalcds%" -T "TOTALTRACKS=%numtracks%" -T "COMMENT=%comment%" %source% -o %dest%


TOC of the extracted CD

Track | Start | Length | Start sector | End sector
––––––––––––––––––––––––––––-
1 | 0:00.00 | 4:25.18 | 0 | 19892
2 | 4:25.18 | 1:48.03 | 19893 | 27995
3 | 6:13.21 | 6:46.30 | 27996 | 58475
4 | 12:59.51 | 8:28.26 | 58476 | 96601
5 | 21:28.02 | 3:11.03 | 96602 | 110929
6 | 24:39.05 | 10:55.04 | 110930 | 160058
7 | 35:34.09 | 13:00.62 | 160059 | 218620


Range status and errors

Selected range

Filename G:\CD\King Crimson - The Road To Red CD14.wav

Peak level 90.5 %
Extraction speed 5.4 X
Range quality 99.9 %
Test CRC 55E01CC5
Copy CRC 55E01CC5
Copy OK

No errors occurred


AccurateRip summary

Track 1 not present in database
Track 2 not present in database
Track 3 not present in database
Track 4 not present in database
Track 5 not present in database
Track 6 not present in database
Track 7 not present in database

None of the tracks are present in the AccurateRip database

End of status report

Tracklist CD15:
Casino Arena, Asbury Park, NJ, 28 June 1974, Part 1

01. Walk On No Pussyfooting - 1:40
02. Larks Tongues In Aspic Pt II - 6:24
03. Lament - 4:21
04. Exiles - 7:27
05. Improv Asbury Park - 11:44
06. Easy Money - 2:25
07. Improv - 8:41
08. Fracture - 11:02
09. Starless - 15:51
10. 21st Century Schizoid Man - 9:01

Exact Audio Copy V1.0 beta 3 from 29. August 2011

EAC extraction logfile from 7. November 2013, 7:27

King Crimson / The Road To Red CD15 - 28 June 1974 Asbury Park

Used drive : ATAPI iHAS124 B Adapter: 2 ID: 0

Read mode : Secure
Utilize accurate stream : Yes
Defeat audio cache : Yes
Make use of C2 pointers : No

Read offset correction : 6
Overread into Lead-In and Lead-Out : No
Fill up missing offset samples with silence : Yes
Delete leading and trailing silent blocks : No
Null samples used in CRC calculations : Yes
Used interface : Native Win32 interface for Win NT & 2000

Used output format : User Defined Encoder
Selected bitrate : 1024 kBit/s
Quality : High
Add ID3 tag : No
Command line compressor : C:\Program Files (x86)\Exact Audio Copy\FLAC\FLAC.EXE
Additional command line options : -8 -V -T "ARTIST=%artist%" -T "TITLE=%title%" -T "ALBUM=%albumtitle%" -T "DATE=%year%" -T "TRACKNUMBER=%tracknr%" -T "GENRE=%genre%" -T "PERFORMER=%albuminterpret%" -T "COMPOSER=%composer%" %haslyrics%–tag-from-file=LYRICS="%lyricsfile%"%haslyrics% -T "ALBUMARTIST=%albumartist%" -T "DISCNUMBER=%cdnumber%" -T "TOTALDISCS=%totalcds%" -T "TOTALTRACKS=%numtracks%" -T "COMMENT=%comment%" %source% -o %dest%


TOC of the extracted CD

Track | Start | Length | Start sector | End sector
––––––––––––––––––––––––––––-
1 | 0:00.00 | 1:39.62 | 0 | 7486
2 | 1:39.62 | 6:23.70 | 7487 | 36281
3 | 8:03.57 | 4:21.26 | 36282 | 55882
4 | 12:25.08 | 7:27.03 | 55883 | 89410
5 | 19:52.11 | 11:44.08 | 89411 | 142218
6 | 31:36.19 | 2:25.00 | 142219 | 153093
7 | 34:01.19 | 8:40.73 | 153094 | 192166
8 | 42:42.17 | 11:02.26 | 192167 | 241842
9 | 53:44.43 | 15:50.55 | 241843 | 313147
10 | 69:35.23 | 9:01.19 | 313148 | 353741


Range status and errors

Selected range

Filename G:\CD\King Crimson - The Road To Red CD15.wav

Peak level 97.9 %
Extraction speed 6.8 X
Range quality 100.0 %
Test CRC D91EA299
Copy CRC D91EA299
Copy OK

No errors occurred


AccurateRip summary

Track 1 not present in database
Track 2 not present in database
Track 3 not present in database
Track 4 not present in database
Track 5 not present in database
Track 6 not present in database
Track 7 not present in database
Track 8 not present in database
Track 9 not present in database
Track 10 not present in database

None of the tracks are present in the AccurateRip database

End of status report

Tracklist CD16:
Casino Arena, Asbury Park, NJ, 28 April 1974, Part 2

01. Walk On No Pussyfooting - 0:08
02. Larks Tongues In Aspic Pt II - 6:24
03. Lament - 4:21
04. Exiles - 7:16
05. Improv Asbury Park - 11:42
06. Easy Money - 11:07
07. Fracture - 11:03
08. Starless - 15:49
09. 21st Century Schizoid Man - 9:31

Exact Audio Copy V1.0 beta 3 from 29. August 2011

EAC extraction logfile from 7. November 2013, 8:46

King Crimson / The Road To Red CD16 - 28 June 1974 Asbury Park

Used drive : ATAPI iHAS124 B Adapter: 2 ID: 0

Read mode : Secure
Utilize accurate stream : Yes
Defeat audio cache : Yes
Make use of C2 pointers : No

Read offset correction : 6
Overread into Lead-In and Lead-Out : No
Fill up missing offset samples with silence : Yes
Delete leading and trailing silent blocks : No
Null samples used in CRC calculations : Yes
Used interface : Native Win32 interface for Win NT & 2000

Used output format : User Defined Encoder
Selected bitrate : 1024 kBit/s
Quality : High
Add ID3 tag : No
Command line compressor : C:\Program Files (x86)\Exact Audio Copy\FLAC\FLAC.EXE
Additional command line options : -8 -V -T "ARTIST=%artist%" -T "TITLE=%title%" -T "ALBUM=%albumtitle%" -T "DATE=%year%" -T "TRACKNUMBER=%tracknr%" -T "GENRE=%genre%" -T "PERFORMER=%albuminterpret%" -T "COMPOSER=%composer%" %haslyrics%–tag-from-file=LYRICS="%lyricsfile%"%haslyrics% -T "ALBUMARTIST=%albumartist%" -T "DISCNUMBER=%cdnumber%" -T "TOTALDISCS=%totalcds%" -T "TOTALTRACKS=%numtracks%" -T "COMMENT=%comment%" %source% -o %dest%


TOC of the extracted CD

Track | Start | Length | Start sector | End sector
––––––––––––––––––––––––––––-
1 | 0:00.00 | 0:07.65 | 0 | 589
2 | 0:07.65 | 6:23.43 | 590 | 29357
3 | 6:31.33 | 4:20.68 | 29358 | 48925
4 | 10:52.26 | 7:15.73 | 48926 | 81623
5 | 18:08.24 | 11:42.31 | 81624 | 134304
6 | 29:50.55 | 11:07.32 | 134305 | 184361
7 | 40:58.12 | 11:02.53 | 184362 | 234064
8 | 52:00.65 | 15:49.25 | 234065 | 305264
9 | 67:50.15 | 9:31.27 | 305265 | 348116


Range status and errors

Selected range

Filename G:\CD\King Crimson - The Road To Red CD16.wav

Peak level 97.5 %
Extraction speed 6.7 X
Range quality 100.0 %
Test CRC DA967FAB
Copy CRC DA967FAB
Copy OK

No errors occurred


AccurateRip summary

Track 1 not present in database
Track 2 not present in database
Track 3 not present in database
Track 4 not present in database
Track 5 not present in database
Track 6 not present in database
Track 7 not present in database
Track 8 not present in database
Track 9 not present in database

None of the tracks are present in the AccurateRip database

End of status report

Tracklist CD17:
Penn State University, University Park, PA, 29 June 1974

01. Walk On No Pussyfooting - 1:53
02. Larks Tongues In Aspic Pt II - 6:25
03. Lament - 5:05
04. Exiles - 9:25
05. Improv Is There life Out There? - 12:13
06. Easy Money - 2:20
07. Improv Its For You But Not For Us - 7:36
08. Fracture - 10:54
09. Starless - 15:265

Exact Audio Copy V1.0 beta 3 from 29. August 2011

EAC extraction logfile from 7. November 2013, 9:12

King Crimson / The Road To Red CD17 - 29 June 1974 Penn State

Used drive : ATAPI iHAS124 B Adapter: 2 ID: 0

Read mode : Secure
Utilize accurate stream : Yes
Defeat audio cache : Yes
Make use of C2 pointers : No

Read offset correction : 6
Overread into Lead-In and Lead-Out : No
Fill up missing offset samples with silence : Yes
Delete leading and trailing silent blocks : No
Null samples used in CRC calculations : Yes
Used interface : Native Win32 interface for Win NT & 2000

Used output format : User Defined Encoder
Selected bitrate : 1024 kBit/s
Quality : High
Add ID3 tag : No
Command line compressor : C:\Program Files (x86)\Exact Audio Copy\FLAC\FLAC.EXE
Additional command line options : -8 -V -T "ARTIST=%artist%" -T "TITLE=%title%" -T "ALBUM=%albumtitle%" -T "DATE=%year%" -T "TRACKNUMBER=%tracknr%" -T "GENRE=%genre%" -T "PERFORMER=%albuminterpret%" -T "COMPOSER=%composer%" %haslyrics%–tag-from-file=LYRICS="%lyricsfile%"%haslyrics% -T "ALBUMARTIST=%albumartist%" -T "DISCNUMBER=%cdnumber%" -T "TOTALDISCS=%totalcds%" -T "TOTALTRACKS=%numtracks%" -T "COMMENT=%comment%" %source% -o %dest%


TOC of the extracted CD

Track | Start | Length | Start sector | End sector
––––––––––––––––––––––––––––-
1 | 0:00.00 | 1:53.12 | 0 | 8486
2 | 1:53.12 | 6:25.28 | 8487 | 37389
3 | 8:18.40 | 5:04.67 | 37390 | 60256
4 | 13:23.32 | 9:24.45 | 60257 | 102601
5 | 22:48.02 | 12:13.35 | 102602 | 157611
6 | 35:01.37 | 2:20.27 | 157612 | 168138
7 | 37:21.64 | 7:35.39 | 168139 | 202302
8 | 44:57.28 | 10:54.26 | 202303 | 251378
9 | 55:51.54 | 15:25.50 | 251379 | 320803


Range status and errors

Selected range

Filename G:\CD\King Crimson - The Road To Red CD17.wav

Peak level 100.0 %
Extraction speed 6.2 X
Range quality 100.0 %
Test CRC BD7399BE
Copy CRC BD7399BE
Copy OK

No errors occurred


AccurateRip summary

Track 1 not present in database
Track 2 not present in database
Track 3 not present in database
Track 4 not present in database
Track 5 not present in database
Track 6 not present in database
Track 7 not present in database
Track 8 not present in database
Track 9 not present in database

None of the tracks are present in the AccurateRip database

End of status report

Tracklist CD18:
Palace Theatre, Providence, RI, 30 June 1974, Part 1

01. Walk On No Pussyfooting - 0:49
02. Larks Tongues In Aspic Pt II - 6:23
03. Lament - 4:40
04. Exiles - 8:58
05. Improv A Voyage To The Centre Of The Cosmos - 15:03
06. Easy Money - 6:41
07. Improv Providence - 10:33

Exact Audio Copy V1.0 beta 3 from 29. August 2011

EAC extraction logfile from 7. November 2013, 9:33

King Crimson / The Road To Red CD17 - 30 June 1974 Providence Pt 1

Used drive : ATAPI iHAS124 B Adapter: 2 ID: 0

Read mode : Secure
Utilize accurate stream : Yes
Defeat audio cache : Yes
Make use of C2 pointers : No

Read offset correction : 6
Overread into Lead-In and Lead-Out : No
Fill up missing offset samples with silence : Yes
Delete leading and trailing silent blocks : No
Null samples used in CRC calculations : Yes
Used interface : Native Win32 interface for Win NT & 2000

Used output format : User Defined Encoder
Selected bitrate : 1024 kBit/s
Quality : High
Add ID3 tag : No
Command line compressor : C:\Program Files (x86)\Exact Audio Copy\FLAC\FLAC.EXE
Additional command line options : -8 -V -T "ARTIST=%artist%" -T "TITLE=%title%" -T "ALBUM=%albumtitle%" -T "DATE=%year%" -T "TRACKNUMBER=%tracknr%" -T "GENRE=%genre%" -T "PERFORMER=%albuminterpret%" -T "COMPOSER=%composer%" %haslyrics%–tag-from-file=LYRICS="%lyricsfile%"%haslyrics% -T "ALBUMARTIST=%albumartist%" -T "DISCNUMBER=%cdnumber%" -T "TOTALDISCS=%totalcds%" -T "TOTALTRACKS=%numtracks%" -T "COMMENT=%comment%" %source% -o %dest%


TOC of the extracted CD

Track | Start | Length | Start sector | End sector
––––––––––––––––––––––––––––-
1 | 0:00.00 | 0:49.23 | 0 | 3697
2 | 0:49.23 | 6:23.19 | 3698 | 32441
3 | 7:12.42 | 4:39.52 | 32442 | 53418
4 | 11:52.19 | 8:57.55 | 53419 | 93748
5 | 20:49.74 | 15:03.02 | 93749 | 161475
6 | 35:53.01 | 6:41.01 | 161476 | 191551
7 | 42:34.02 | 10:33.08 | 191552 | 239034


Range status and errors

Selected range

Filename G:\CD\King Crimson - The Road To Red CD18.wav

Peak level 100.0 %
Extraction speed 5.8 X
Range quality 100.0 %
Test CRC A1C5A401
Copy CRC A1C5A401
Copy OK

No errors occurred


AccurateRip summary

Track 1 not present in database
Track 2 not present in database
Track 3 not present in database
Track 4 not present in database
Track 5 not present in database
Track 6 not present in database
Track 7 not present in database

None of the tracks are present in the AccurateRip database

End of status report

Tracklist CD19:
Palace Theatre, Providence, RI, 28 April 1974, Part 2

01. Fracture - 11:30
02. Starless - 15:08
03. 21st Century Schizoid Man - 9:23

Exact Audio Copy V1.0 beta 3 from 29. August 2011

EAC extraction logfile from 7. November 2013, 9:49

King Crimson / The Road To Red CD19 - 30 June 1974 Providence Pt 2

Used drive : ATAPI iHAS124 B Adapter: 2 ID: 0

Read mode : Secure
Utilize accurate stream : Yes
Defeat audio cache : Yes
Make use of C2 pointers : No

Read offset correction : 6
Overread into Lead-In and Lead-Out : No
Fill up missing offset samples with silence : Yes
Delete leading and trailing silent blocks : No
Null samples used in CRC calculations : Yes
Used interface : Native Win32 interface for Win NT & 2000

Used output format : User Defined Encoder
Selected bitrate : 1024 kBit/s
Quality : High
Add ID3 tag : No
Command line compressor : C:\Program Files (x86)\Exact Audio Copy\FLAC\FLAC.EXE
Additional command line options : -8 -V -T "ARTIST=%artist%" -T "TITLE=%title%" -T "ALBUM=%albumtitle%" -T "DATE=%year%" -T "TRACKNUMBER=%tracknr%" -T "GENRE=%genre%" -T "PERFORMER=%albuminterpret%" -T "COMPOSER=%composer%" %haslyrics%–tag-from-file=LYRICS="%lyricsfile%"%haslyrics% -T "ALBUMARTIST=%albumartist%" -T "DISCNUMBER=%cdnumber%" -T "TOTALDISCS=%totalcds%" -T "TOTALTRACKS=%numtracks%" -T "COMMENT=%comment%" %source% -o %dest%


TOC of the extracted CD

Track | Start | Length | Start sector | End sector
––––––––––––––––––––––––––––-
1 | 0:00.00 | 11:29.69 | 0 | 51743
2 | 11:29.69 | 15:07.70 | 51744 | 119838
3 | 26:37.64 | 9:23.17 | 119839 | 162080


Range status and errors

Selected range

Filename G:\CD\King Crimson - The Road To Red CD19.wav

Peak level 100.0 %
Extraction speed 5.2 X
Range quality 100.0 %
Test CRC 42F98F62
Copy CRC 42F98F62
Copy OK

No errors occurred


AccurateRip summary

Track 1 not present in database
Track 2 not present in database
Track 3 not present in database

None of the tracks are present in the AccurateRip database

End of status report

Tracklist CD20:
Central Park, New York, NY, 1 July 1974

01. Walk On No Pussyfooting - 1:51
02. 21st Century Schizoid Man - 7:46
03. Lament - 4:42
04. Improv - 1:28
05. Exiles - 6:15
06. Improv Cerberus - 8:17
07. Easy Money - 6:16
08. Fracture* - 11:06
09. Starless - 12:14
10. The Talking Drum - 5:21
11. Larks Tongues In Aspic Pt II - 6:44

Exact Audio Copy V1.0 beta 3 from 29. August 2011

EAC extraction logfile from 7. November 2013, 10:14

King Crimson / The Road To Red CD20 - 1st July 1974 Central Park, New York

Used drive : ATAPI iHAS124 B Adapter: 2 ID: 0

Read mode : Secure
Utilize accurate stream : Yes
Defeat audio cache : Yes
Make use of C2 pointers : No

Read offset correction : 6
Overread into Lead-In and Lead-Out : No
Fill up missing offset samples with silence : Yes
Delete leading and trailing silent blocks : No
Null samples used in CRC calculations : Yes
Used interface : Native Win32 interface for Win NT & 2000

Used output format : User Defined Encoder
Selected bitrate : 1024 kBit/s
Quality : High
Add ID3 tag : No
Command line compressor : C:\Program Files (x86)\Exact Audio Copy\FLAC\FLAC.EXE
Additional command line options : -8 -V -T "ARTIST=%artist%" -T "TITLE=%title%" -T "ALBUM=%albumtitle%" -T "DATE=%year%" -T "TRACKNUMBER=%tracknr%" -T "GENRE=%genre%" -T "PERFORMER=%albuminterpret%" -T "COMPOSER=%composer%" %haslyrics%–tag-from-file=LYRICS="%lyricsfile%"%haslyrics% -T "ALBUMARTIST=%albumartist%" -T "DISCNUMBER=%cdnumber%" -T "TOTALDISCS=%totalcds%" -T "TOTALTRACKS=%numtracks%" -T "COMMENT=%comment%" %source% -o %dest%


TOC of the extracted CD

Track | Start | Length | Start sector | End sector
––––––––––––––––––––––––––––-
1 | 0:00.00 | 1:51.11 | 0 | 8335
2 | 1:51.11 | 7:45.62 | 8336 | 43272
3 | 9:36.73 | 4:41.44 | 43273 | 64391
4 | 14:18.42 | 1:28.28 | 64392 | 71019
5 | 15:46.70 | 6:15.02 | 71020 | 99146
6 | 22:01.72 | 8:17.26 | 99147 | 136447
7 | 30:19.23 | 6:16.36 | 136448 | 164683
8 | 36:35.59 | 11:05.51 | 164684 | 214609
9 | 47:41.35 | 12:13.51 | 214610 | 269635
10 | 59:55.11 | 5:21.24 | 269636 | 293734
11 | 65:16.35 | 6:44.35 | 293735 | 324069


Range status and errors

Selected range

Filename G:\CD\King Crimson - The Road To Red CD20.wav

Peak level 85.6 %
Extraction speed 6.0 X
Range quality 100.0 %
Test CRC 8EADEF0D
Copy CRC 8EADEF0D
Copy OK

No errors occurred


AccurateRip summary

Track 1 not present in database
Track 2 not present in database
Track 3 not present in database
Track 4 not present in database
Track 5 not present in database
Track 6 not present in database
Track 7 not present in database
Track 8 not present in database
Track 9 not present in database
Track 10 not present in database
Track 11 not present in database

None of the tracks are present in the AccurateRip database

End of status report

Tracklist CD21:
Red The 2013 Stereo Mix

01. Red - 6:17
02. Fallen Angel - 6:14
03. One More Red Nightmare - 7:11
04. Providence - 8:11
05. Starless - 12:18

Exact Audio Copy V1.0 beta 3 from 29. August 2011

EAC extraction logfile from 7. November 2013, 10:33

King Crimson / The Road To Red CD21 - Red (2013 Stereo Mix)

Used drive : ATAPI iHAS124 B Adapter: 2 ID: 0

Read mode : Secure
Utilize accurate stream : Yes
Defeat audio cache : Yes
Make use of C2 pointers : No

Read offset correction : 6
Overread into Lead-In and Lead-Out : No
Fill up missing offset samples with silence : Yes
Delete leading and trailing silent blocks : No
Null samples used in CRC calculations : Yes
Used interface : Native Win32 interface for Win NT & 2000

Used output format : User Defined Encoder
Selected bitrate : 1024 kBit/s
Quality : High
Add ID3 tag : No
Command line compressor : C:\Program Files (x86)\Exact Audio Copy\FLAC\FLAC.EXE
Additional command line options : -8 -V -T "ARTIST=%artist%" -T "TITLE=%title%" -T "ALBUM=%albumtitle%" -T "DATE=%year%" -T "TRACKNUMBER=%tracknr%" -T "GENRE=%genre%" -T "PERFORMER=%albuminterpret%" -T "COMPOSER=%composer%" %haslyrics%–tag-from-file=LYRICS="%lyricsfile%"%haslyrics% -T "ALBUMARTIST=%albumartist%" -T "DISCNUMBER=%cdnumber%" -T "TOTALDISCS=%totalcds%" -T "TOTALTRACKS=%numtracks%" -T "COMMENT=%comment%" %source% -o %dest%


TOC of the extracted CD

Track | Start | Length | Start sector | End sector
––––––––––––––––––––––––––––-
1 | 0:00.00 | 6:17.00 | 0 | 28274
2 | 6:17.00 | 6:14.19 | 28275 | 56343
3 | 12:31.19 | 7:11.21 | 56344 | 88689
4 | 19:42.40 | 8:11.10 | 88690 | 125524
5 | 27:53.50 | 12:18.21 | 125525 | 180895


Range status and errors

Selected range

Filename G:\CD\King Crimson - The Road To Red CD21.wav

Peak level 97.1 %
Extraction speed 5.2 X
Range quality 99.9 %
Test CRC D5F3BAC0
Copy CRC D5F3BAC0
Copy OK

No errors occurred


AccurateRip summary

Track 1 not present in database
Track 2 not present in database
Track 3 not present in database
Track 4 not present in database
Track 5 not present in database

None of the tracks are present in the AccurateRip database

End of status report

Tracklist DVD:
Casino Arena, Ashbury Park, June 28 1974 (2013 Mix) 01:20:24
LPCM Stereo (24/96)


01. Walk On: No Pussyfooting (Fripp/Eno)
02. Larks’ Tongues In Aspic (Part II) (Fripp)
03. Lament (Fripp/Wetton/Palmer-James)
04. Exiles (Cross/Fripp/Wetton/Palmer-James)
05. Improv: Asbury Park (Cross/Fripp/Wetton/Bruford)
06. Easy Money (Fripp/Wetton/Palmer-James)
07. Improv (Cross/Fripp/Wetton/Bruford)
08. Fracture (Fripp)
09. Starless (Cross/Fripp/Wetton/Bruford/Palmer-James)
10. 21st Century Schizoid Man (Fripp/McDonald/Lake/Giles/Sinfield)

Casino Arena, Ashbury Park, June 28 1974 (2005 Mix) 01:17:22
LPCM Stereo (24/48)


01. Walk On: No Pussyfooting (Fripp/Eno)
02. Larks’ Tongues In Aspic (Part II) (Fripp)
03. Lament (Fripp/Wetton/Palmer-James)
04. Exiles (Cross/Fripp/Wetton/Palmer-James)
05. Improv: Asbury Park (Cross/Fripp/Wetton/Bruford)
06. Easy Money (Fripp/Wetton/Palmer-James)
07. Fracture (Fripp)
08. Starless (Cross/Fripp/Wetton/Bruford/Palmer-James)
09. 21st Century Schizoid Man (Fripp/McDonald/Lake/Giles/Sinfield)

USA (30th Anniversary Remaster Expanded Edition) 01:07:11
LPCM Stereo (24/48)


01. Walk On: No Pussyfooting (Fripp/Eno)
02. Larks’ Tongues In Aspic (Part II) (Fripp)
03. Lament (Fripp/Wetton/Palmer-James)
04. Exiles (Cross/Fripp/Wetton/Palmer-James)
05. Improv: Asbury Park (Cross/Fripp/Wetton/Bruford)
06. Easy Money (Fripp/Wetton/Palmer-James)
07. 21st Century Schizoid Man (Fripp/McDonald/Lake/Giles/Sinfield)
08. Fracture (Fripp)
09. Starless (Cross/Fripp/Wetton/Bruford/Palmer-James)

Red - 2013 Stereo Mix 00:40:09

01. Red (Fripp)
02. Fallen Angel (Fripp/Wetton/Palmer-James)
03. One More red Nightmare (Fripp/Wetton)
04. Providence (Cross/Fripp/Wetton/Bruford)
05. Starless (Cross/Fripp/Wetton/Bruford/Palmer-James)

Title: диск
Size: 6.41 Gb ( 6 722 220 KBytes ) - DVD-9
Enabled regions: 1, 2, 3, 4, 5, 6, 7, 8
VTS_01 :
Play Length: 00:20:57+00:59:27
Video: NTSC 16:9 (720x480) VBR, Auto Pan&Scan
Audio:
English (LinearPCM, 2 ch)
VTS_02 :
Play Length: 01:17:22
Video: NTSC 16:9 (720x480) VBR, Auto Pan&Scan
Audio:
English (LinearPCM, 2 ch)
VTS_03 :
Play Length: 01:07:11
Video: NTSC 16:9 (720x480) VBR, Auto Pan&Scan
Audio:
English (LinearPCM, 2 ch)
VTS_04 :
Play Length: 00:40:09
Video: NTSC 16:9 (720x480) VBR, Auto Pan&Scan
Audio:
English (LinearPCM, 2 ch)
Menu Video:
NTSC 16:9 (720x480) VBR
Auto Pan&Scan
Menu Subtitles:
Not specified
Menu English Language Unit :
Root Menu


Tracklist Blu-Ray 1:
LPCM Audio 9216 kbps 2.0 / 192 kHz / 24-bit

Stanley Warner Theatre, Pittsburgh, PA

01 Walk On: No Pussyfooting
02 The Great Deceiver
03 Lament
04 Improv: Bartley Butsford
05 Exiles
06 Fracture
07 Easy Money
08 Improv: Daniel Dust
09 The Night Watch
10 Doctor Diamond
11 Starless
12 Improv: Wilton Carpet
13 The Talking Drum
14 Larks’ Tongues In Aspic (Part II)
15 21st Century Schizoid Man

Massey Hall, Toronto, Ontario

01 Walk On: No Pussyfooting
02 Larks’ Tongues In Aspic (Part II)
03 Lament
04 Exiles
05 Improv: The Golden Walnut
06 The Night Watch
07 Fracture
08 Improv: Clueless And Slightly Slack
09 Easy Money
10 Starless
11 21st Century Schizoid Man

Penn State University, University Park, PA

01 Walk On: No Pussyfooting
02 Larks’ Tongues In Aspic (Part II)
03 Lament
04 Exiles
05 Improv: Is There Life Out There?
06 Easy Money
07 Improv: It Is For You, But Not For Us
08 Fracture
09 Starless

Palace Theatre, Providence, RI

01 Walk On: No Pussyfooting
02 Larks’ Tongues In Aspic (Part II)
03 Lament
04 Exiles
05 Improv: A Voyage To The Centre Of The Cosmos
06 Easy Money
07 Improv: Providence
08 Fracture
09 Starless
10 21st Century Schizoid Man

Disc Title: King Crimson - The Road To Red (24 Disc Limited Edition Box Set - Disc 23)
Disc Size: 27 568 995 523 bytes
Protection: AACS
BD-Java: Yes
BDInfo: 0.5.6
Notes:
BDINFO HOME:
Cinema Squid
http://www.cinemasquid.com/blu-ray/tools/bdinfo
INCLUDES FORUMS REPORT FOR:
AVS Forum Blu-ray Audio and Video Specifications Thread
http://www.avsforum.com/avs-vb/showthread.php?t=1155731
********************
PLAYLIST: 00000.MPLS
********************
<–- BEGIN FORUMS PASTE –->
Код:
Total Video
Title Codec Length Movie Size Disc Size Bitrate Bitrate Main Audio Track Secondary Audio Track
––- ––– –––- ––––––– ––––––– –––- –––- ––––––––– ––––––––––-
00000.MPLS AVC 1:39:04 7 759 580 736 27 568 995 523 10,44 0,51 LPCM 2.0 9216Kbps (192kHz/24-bit)
Код:
DISC INFO:
Disc Title: King Crimson - The Road To Red (24 Disc Limited Edition Box Set - Disc 23)
Disc Size: 27 568 995 523 bytes
Protection: AACS
BD-Java: Yes
BDInfo: 0.5.6
PLAYLIST REPORT:
Name: 00000.MPLS
Length: 1:39:04 (h:m:s)
Size: 7 759 580 736 bytes
Total Bitrate: 10,44 Mbps
VIDEO:
Codec Bitrate Description
––- –––- –––––-
MPEG-4 AVC Video 510 kbps 1080p / 23,976 fps / 16:9 / High Profile 4.1
AUDIO:
Codec Language Bitrate Description
––- –––– –––- –––––-
LPCM Audio Undetermined 9216 kbps 2.0 / 192 kHz / 9216 kbps / 24-bit
FILES:
Name Time In Length Size Total Bitrate
–– –––- ––– –– ––––––-
00000.M2TS 0:00:00.000 1:39:04.271 7 759 580 736 10 443
CHAPTERS:
Number Time In Length Avg Video Rate Max 1-Sec Rate Max 1-Sec Time Max 5-Sec Rate Max 5-Sec Time Max 10Sec Rate Max 10Sec Time Avg Frame Size Max Frame Size Max Frame Time
––– –––- ––– ––––––– ––––––– ––––––– ––––––– ––––––– ––––––– ––––––– ––––––– ––––––– –––––––
1 0:00:00.000 1:39:04.271 510 kbps 571 kbps 01:18:50.684 534 kbps 01:18:50.684 530 kbps 01:18:50.684 2 658 bytes 58 936 bytes 01:18:51.685
STREAM DIAGNOSTICS:
File PID Type Codec Language Seconds Bitrate Bytes Packets
–– –- –– ––- –––– ––––––– ––––––– ––––––- ––-
00000.M2TS 4113 (0x1011) 0x1B AVC 5944,147 510 378 776 927 2 107 035
00000.M2TS 4352 (0x1100) 0x80 LPCM und (Undetermined) 5944,147 9 223 6 852 565 432 38 043 451
<–– END FORUMS PASTE ––>
QUICK SUMMARY:
Disc Title: King Crimson - The Road To Red (24 Disc Limited Edition Box Set - Disc 23)
Disc Size: 27 568 995 523 bytes
Protection: AACS
BD-Java: Yes
Playlist: 00000.MPLS
Size: 7 759 580 736 bytes
Length: 1:39:04
Total Bitrate: 10,44 Mbps
Video: MPEG-4 AVC Video / 510 kbps / 1080p / 23,976 fps / 16:9 / High Profile 4.1
Audio: Undetermined / LPCM Audio / 2.0 / 192 kHz / 9216 kbps / 24-bit

Tracklist Blu-Ray 2:
Audio №1: LPCM Audio 9216 kbps 2.0 / 192 kHz / 24-bit
Audio №2: LPCM Audio 4608 kbps 2.0 / 96 kHz / 24-bit
Audio №3: LPCM Audio 13824 kbps 5.1 / 96 kHz / 24-bit
Audio №4: DTS-HD Master Audio 6493 kbps 5.1 / 96 kHz / 24-bit (DTS Core: 5.1 / 48 kHz / 1509 kbps / 24-bit)

Casino Arena, Asbury Park, NJ (2013 Mix LPCM Stereo 24/192)

01 Walk On: No Pussyfooting
02 Larks’ Tongues In Aspic (Part II)
03 Lament
04 Exiles
05 Improv: Asbury Park
06 Easy Money
07 Improv
08 Fracture
09 Starless
10 21st Century Schizoid Man

Casino Arena, Asbury Park, NJ • 2005 Mix (LPCM Stereo 24/96)

01 Walk On: No Pussyfooting
02 Larks’ Tongues In Aspic (Part II)
03 Lament
04 Exiles
05 Improv: Asbury Park
06 Easy Money
07 Fracture
08 Starless
09 21st Century Schizoid Man

30th Anniversary Remaster (LPCM Stereo 24/96)

01 Walk On: No Pussyfooting
02 Larks’ Tongues In Aspic (Part II)
03 Lament
04 Exiles
05 Improv: Asbury Park
06 Easy Money
07 21st Century Schizoid Man
08 Fracture
09 Starless

Bonus Live Tracks

01 Providence (Full Version)
02 A Voyage To The Centre Of The Cosmos

Original UK Vinyl Transfer (LPCM Stereo 24/96)

01 Larks’ Tongues In Aspic (Part II)
02 Lament
03 Exiles
04 Asbury Park
05 Easy Money
06 21st Century Schizoid Man

Red The 2009 Surround Mix (DTS-HD Master Surround • LPCM 5.1 Surround)

01 Red
02 Fallen Angel
03 One More Red Nightmare
04 Providence
05 Starless

Bonus Studio Track (Only 5.1 Version)

01 Fallen Angel Trio Version (Instrumental)

Bonus Live Tracks (Only 5.1 Version)

01 Providence (Full Version)
02 A Voyage To The Centre Of The Cosmos

Red 30th Anniversary Remaster (LPCM Stereo 24/96)

01 Red
02 Fallen Angel
03 One More Red Nightmare
04 Providence
05 Starless

Red 2013 Stereo Mix (LPCM Stereo 24/96)

01 Red
02 Fallen Angel
03 One More Red Nightmare
04 Providence
05 Starless

Bonus Studio Tracks

01 Red Trio Version
02 Fallen Angel Trio Version (Instrumental)

Disc Title: King Crimson - The Road To Red (24 Disc Limited Edition Box Set - Disc 24)
Disc Size: 29 294 284 711 bytes
Protection: AACS
BD-Java: Yes
BDInfo: 0.5.6
Notes:
BDINFO HOME:
Cinema Squid
http://www.cinemasquid.com/blu-ray/tools/bdinfo
INCLUDES FORUMS REPORT FOR:
AVS Forum Blu-ray Audio and Video Specifications Thread
http://www.avsforum.com/avs-vb/showthread.php?t=1155731
********************
PLAYLIST: 00005.MPLS
********************
<–- BEGIN FORUMS PASTE –->
Код:
Total Video
Title Codec Length Movie Size Disc Size Bitrate Bitrate Main Audio Track Secondary Audio Track
––- ––– –––- ––––––– ––––––– –––- –––- ––––––––– ––––––––––-
00005.MPLS AVC 1:20:28 6 269 399 424 29 294 284 711 10,39 0,46 LPCM 2.0 9216Kbps (192kHz/24-bit)
Код:
DISC INFO:
Disc Title: King Crimson - The Road To Red (24 Disc Limited Edition Box Set - Disc 24)
Disc Size: 29 294 284 711 bytes
Protection: AACS
BD-Java: Yes
BDInfo: 0.5.6
PLAYLIST REPORT:
Name: 00005.MPLS
Length: 1:20:28 (h:m:s)
Size: 6 269 399 424 bytes
Total Bitrate: 10,39 Mbps
VIDEO:
Codec Bitrate Description
––- –––- –––––-
MPEG-4 AVC Video 457 kbps 1080p / 23,976 fps / 16:9 / High Profile 4.1
AUDIO:
Codec Language Bitrate Description
––- –––– –––- –––––-
LPCM Audio Undetermined 9216 kbps 2.0 / 192 kHz / 9216 kbps / 24-bit
FILES:
Name Time In Length Size Total Bitrate
–– –––- ––– –– ––––––-
00005.M2TS 0:00:00.000 1:20:28.448 6 269 399 424 10 387
CHAPTERS:
Number Time In Length Avg Video Rate Max 1-Sec Rate Max 1-Sec Time Max 5-Sec Rate Max 5-Sec Time Max 10Sec Rate Max 10Sec Time Avg Frame Size Max Frame Size Max Frame Time
––– –––- ––– ––––––– ––––––– ––––––– ––––––– ––––––– ––––––– ––––––– ––––––– ––––––– –––––––
1 0:00:00.000 1:20:28.448 457 kbps 512 kbps 00:03:02.432 488 kbps 00:03:02.473 483 kbps 00:03:02.473 2 380 bytes 52 469 bytes 00:03:09.147
STREAM DIAGNOSTICS:
File PID Type Codec Language Seconds Bitrate Bytes Packets
–– –- –– ––- –––– ––––––– ––––––– ––––––- ––-
00005.M2TS 4113 (0x1011) 0x1B AVC 4828,365 457 275 556 514 1 536 569
00005.M2TS 4352 (0x1100) 0x80 LPCM und (Undetermined) 4828,365 9 223 5 566 231 212 30 902 140
<–– END FORUMS PASTE ––>
QUICK SUMMARY:
Disc Title: King Crimson - The Road To Red (24 Disc Limited Edition Box Set - Disc 24)
Disc Size: 29 294 284 711 bytes
Protection: AACS
BD-Java: Yes
Playlist: 00005.MPLS
Size: 6 269 399 424 bytes
Length: 1:20:28
Total Bitrate: 10,39 Mbps
Video: MPEG-4 AVC Video / 457 kbps / 1080p / 23,976 fps / 16:9 / High Profile 4.1
Audio: Undetermined / LPCM Audio / 2.0 / 192 kHz / 9216 kbps / 24-bit


King Crimson: The Road to Red (2013) [21CD + DVD + 2Blu-Ray Box Set] Re-up

All thanks go to gerrV

Download King Crimson: The Road to Red (2013):