Subcategories

Kirk Whalum - Romance Language (2012)

Posted By: tiburon
Kirk Whalum - Romance Language (2012)

Kirk Whalum - Romance Language (2012)
EAC 1.0b3 | FLAC tracks level 8 | Cue+Log+M3U+MD5 | Full Scans 300dpi | 347MB + 5% Recovery
MP3 CBR 320 Kbps | 145MB + 5% Recovery
Genre: Smooth Jazz

Romance Language is very appropriate for Valentine's Day—the perfect background for a romantic evening. Tenor saxophonist Kirk Whalum has teamed up with his brother, vocalist Kevin Whalum, on this recreation of the classic John Coltrane and Johnny Hartman.
Track List
01. They Say It's Wonderful 5:32
02. Dedicated To You 5:09
03. My One And Only Love 5:34
04. Lush Life 6:16
05. You Are Too Beautiful 8:32
06. Autumn Serenade 5:02
07. Almost Doesn't Count 4:10
08. I Wish I Wasn't 4:47
09. I Wanna Know 5:13
10. Spend My Life With You 4:42

musicians
Kirk Whalum - tenor and soprano saxes, flute
John Stoddart - piano, keyboards, organ, background vocals
Kevin Whalum - vocal
Hugh "Peanuts" Whalum - vocal
Bashiri Johnson - percussion
Marcus Finnie - drums
Braylon Lacy - bass
Kevin Turner - electric guitar
Michael "Nomad" Ripoll - acoustic guitar
Ralph Lofton - organ
Javier Solis - percussion
George Tidwell - flugelhorn, trumpet

Produced by Kirk Whalum and John Stoddart


Exact Audio Copy V1.0 beta 3 from 29. August 2011

EAC extraction logfile from 15. June 2012, 13:54

Kirk Whalum / Romance Language

Used drive : HL-DT-STDVDRAM GH20NS10 Adapter: 2 ID: 1

Read mode : Secure
Utilize accurate stream : Yes
Defeat audio cache : Yes
Make use of C2 pointers : No

Read offset correction : 667
Overread into Lead-In and Lead-Out : No
Fill up missing offset samples with silence : Yes
Delete leading and trailing silent blocks : No
Null samples used in CRC calculations : Yes
Used interface : Native Win32 interface for Win NT & 2000
Gap handling : Appended to previous track

Used output format : User Defined Encoder
Selected bitrate : 1024 kBit/s
Quality : High
Add ID3 tag : No
Command line compressor : C:\Program Files\Exact Audio Copy\Flac\flac.exe
Additional command line options : -8 -V -T "ARTIST=%artist%" -T "TITLE=%title%" -T "ALBUM=%albumtitle%" -T "DATE=%year%" -T "TRACKNUMBER=%tracknr%" -T "TOTALTRACKS=%numtracks%" -T "GENRE=%genre%" -T "ALBUMARTIST=%albumartist%" -T "ALBUM ARTIST=%albumartist%" -T "COMMENT=EAC Secure Mode, Test & Copy, AccurateRip, FLAC -8" %source%


TOC of the extracted CD

Track | Start | Length | Start sector | End sector
––––––––––––––––––––––––––––-
1 | 0:00.00 | 5:32.54 | 0 | 24953
2 | 5:32.54 | 5:09.73 | 24954 | 48201
3 | 10:42.52 | 5:35.14 | 48202 | 73340
4 | 16:17.66 | 6:16.23 | 73341 | 101563
5 | 22:34.14 | 8:32.58 | 101564 | 140021
6 | 31:06.72 | 5:04.42 | 140022 | 162863
7 | 36:11.39 | 4:10.58 | 162864 | 181671
8 | 40:22.22 | 4:48.49 | 181672 | 203320
9 | 45:10.71 | 5:13.64 | 203321 | 226859
10 | 50:24.60 | 4:46.09 | 226860 | 248318


Track 1

Filename D:\Kirk Whalum - Romance Language (2012) [FLAC]\01 - They Say It's Wonderful.wav

Pre-gap length 0:00:02.00

Peak level 98.8 %
Extraction speed 4.3 X
Track quality 100.0 %
Test CRC 83E417D9
Copy CRC 83E417D9
Cannot be verified as accurate (confidence 1) [9A68AF22], AccurateRip returned [2E8BE1BC] (AR v2)
Copy OK

Track 2

Filename D:\Kirk Whalum - Romance Language (2012) [FLAC]\02 - Dedicated To You.wav

Pre-gap length 0:00:00.51

Peak level 98.8 %
Extraction speed 4.1 X
Track quality 100.0 %
Test CRC BD3C7E06
Copy CRC BD3C7E06
Cannot be verified as accurate (confidence 1) [A5710DA2], AccurateRip returned [49666E78] (AR v2)
Copy OK

Track 3

Filename D:\Kirk Whalum - Romance Language (2012) [FLAC]\03 - My One And Only Love.wav

Peak level 98.8 %
Extraction speed 5.1 X
Track quality 100.0 %
Test CRC 2EB00873
Copy CRC 2EB00873
Cannot be verified as accurate (confidence 1) [7A318818], AccurateRip returned [3AC0AEF4] (AR v2)
Copy OK

Track 4

Filename D:\Kirk Whalum - Romance Language (2012) [FLAC]\04 - Lush Life.wav

Pre-gap length 0:00:00.56

Peak level 98.8 %
Extraction speed 5.2 X
Track quality 100.0 %
Test CRC EC31FFAF
Copy CRC EC31FFAF
Cannot be verified as accurate (confidence 1) [F73738FC], AccurateRip returned [8FE0BE35] (AR v2)
Copy OK

Track 5

Filename D:\Kirk Whalum - Romance Language (2012) [FLAC]\05 - You Are Too Beautiful.wav

Pre-gap length 0:00:00.04

Peak level 98.8 %
Extraction speed 6.9 X
Track quality 100.0 %
Test CRC 3712B7CA
Copy CRC 3712B7CA
Cannot be verified as accurate (confidence 1) [2F4F9829], AccurateRip returned [8624DF9D] (AR v2)
Copy OK

Track 6

Filename D:\Kirk Whalum - Romance Language (2012) [FLAC]\06 - Autumn Serenade.wav

Pre-gap length 0:00:00.54

Peak level 98.8 %
Extraction speed 6.9 X
Track quality 100.0 %
Test CRC 049B6C93
Copy CRC 049B6C93
Cannot be verified as accurate (confidence 1) [C790F74F], AccurateRip returned [0470B71A] (AR v2)
Copy OK

Track 7

Filename D:\Kirk Whalum - Romance Language (2012) [FLAC]\07 - Almost Doesn't Count.wav

Pre-gap length 0:00:01.29

Peak level 98.8 %
Extraction speed 6.5 X
Track quality 100.0 %
Test CRC E79BBADA
Copy CRC E79BBADA
Cannot be verified as accurate (confidence 1) [62868B16], AccurateRip returned [7475C988] (AR v2)
Copy OK

Track 8

Filename D:\Kirk Whalum - Romance Language (2012) [FLAC]\08 - I Wish I Wasn't.wav

Pre-gap length 0:00:00.02

Peak level 98.8 %
Extraction speed 7.9 X
Track quality 100.0 %
Test CRC A4EBF622
Copy CRC A4EBF622
Cannot be verified as accurate (confidence 1) [0E09A5FC], AccurateRip returned [C8D80CD4] (AR v2)
Copy OK

Track 9

Filename D:\Kirk Whalum - Romance Language (2012) [FLAC]\09 - I Wanna Know.wav

Pre-gap length 0:00:01.27

Peak level 98.8 %
Extraction speed 8.2 X
Track quality 100.0 %
Test CRC EC33E9A8
Copy CRC EC33E9A8
Cannot be verified as accurate (confidence 1) [FDC979A3], AccurateRip returned [D61F97F5] (AR v2)
Copy OK

Track 10

Filename D:\Kirk Whalum - Romance Language (2012) [FLAC]\10 - Spend My Life With You.wav

Pre-gap length 0:00:00.55

Peak level 98.8 %
Extraction speed 8.3 X
Track quality 100.0 %
Test CRC A81DD88A
Copy CRC A81DD88A
Cannot be verified as accurate (confidence 1) [E45ACDB2], AccurateRip returned [12FBF883] (AR v2)
Copy OK


No tracks could be verified as accurate
You may have a different pressing from the one(s) in the database

No errors occurred

End of status report

==== Log checksum EE62CE3E9571E2BFE768C2D8FDDDF5A3DA72EADEE854596BA0E097AA083CC6FF ====


––––––––––––––––––––––––––––––––––––––––
Analyzed: Kirk Whalum / Romance Language
––––––––––––––––––––––––––––––––––––––––

DR Peak RMS Duration Track
––––––––––––––––––––––––––––––––––––––––
DR8 -0.10 dB -9.82 dB 5:33 01-They Say It's Wonderful
DR10 -0.10 dB -11.83 dB 5:10 02-Dedicated To You
DR8 -0.10 dB -9.43 dB 5:35 03-My One And Only Love
DR10 -0.10 dB -13.59 dB 6:16 04-Lush Life
DR9 -0.10 dB -10.82 dB 8:33 05-You Are Too Beautiful
DR9 -0.10 dB -10.45 dB 5:05 06-Autumn Serenade
DR8 -0.10 dB -10.05 dB 4:11 07-Almost Doesn't Count
DR11 -0.10 dB -13.38 dB 4:49 08-I Wish I Wasn't
DR10 -0.10 dB -12.59 dB 5:14 09-I Wanna Know
DR8 -0.10 dB -10.87 dB 4:46 10-Spend My Life With You
––––––––––––––––––––––––––––––––––––––––

Number of tracks: 10
Official DR value: DR9

Samplerate: 44100 Hz
Channels: 2
Bits per sample: 16
Bitrate: 785 kbps
Codec: FLAC
================================================================================

Kirk Whalum - Romance Language (2012)
Kirk Whalum - Romance Language (2012)
Kirk Whalum - Romance Language (2012)