Subcategories

Kiss - Alive! (1975)

Posted By: v3122
Kiss - Alive! (1975)

Kiss - Alive! (1975)
EAC | Flac(Image) + Cue + Log & MP3 CBR 320Kbps
1999 | CD-Maximum, CDM 0499-260 | RU | ~ 589 or 191 Mb | Scans(jpg) -> 37 Mb
Hard Rock, Glam

Alive! was the album that catapulted Kiss from cult attraction to mega-superstars. It was their first Top Ten album, remaining on the charts for 110 weeks. Culled from shows in Detroit, New Jersey, Iowa, and Cleveland on the Dressed to Kill tour, the record features producer Eddie Kramer doing a masterful job of capturing the band's live performance on record. The band's youthful energy is contagious, and with positively electric versions of their best early material, it's no mystery why Alive! is widely regarded as one of the greatest live hard rock recordings of all time. "Rock and Roll All Nite" became a Top 20 smash and was the main reason for the album's success, but there are many other tracks that are just as strong – "Deuce," "Strutter," "Firehouse," "Parasite," "She," "100,000 Years," "Black Diamond," and "Cold Gin" all shine in a live setting. Although there's been some speculation of extensive overdubbing to correct mistakes, Alive! remains Kiss' greatest album ever. An essential addition to any rock collection.

by Greg Prato, allmusic
Kiss - Alive! (1975:

Kiss - Alive! (1975)

Tracklist:

01. Deuce
02. Strutter
03. Got To Chose
04. Hotter That Hell
05. Firehouse - Livo
06. Nothin' To Lose
07. C'Mon And Love Me
08. Parasite
09. She
10. Watchin' You
11. 100,00 Years
12. Black Diamond
13. Room Service
14. Rock Bottom
15. Gold Gin
16. Rock And Roll All Nite
17. Let Me Go, Rock'n'Roll

Exact Audio Copy V1.3 from 2. September 2016

Отчёт EAC об извлечении, выполненном 29. января 2018, 11:25

KISS / Alive!(oct.1975)

Дисковод: PLEXTOR DVDR PX-712A Adapter: 8 ID: 1

Режим чтения : Достоверность
Использование точного потока : Да
Отключение кэша аудио : Да
Использование указателей C2 : Нет

Коррекция смещения при чтении : 30
Способность читать области Lead-in и Lead-out : Нет
Заполнение пропущенных сэмплов тишиной : Да
Удаление блоков с тишиной в начале и конце : Нет
При вычислениях CRC использовались нулевые сэмплы : Да
Интерфейс : Установленный внешний ASPI-интерфейс

Выходной формат : Пользовательский кодировщик
Выбранный битрейт : 128 kBit/s
Качество : Высокий
Добавление ID3-тега : Нет
Утилита сжатия : C:\Program Files\Exact Audio Copy\FLAC\FLAC.EXE
Дополнительные параметры : -V -8 -T "Genre=%genre%" -T "Artist=%artist%" -T "Title=%title%" -T "Album=%albumtitle%" -T "Date=%year%" -T "Tracknumber=%tracknr%" -T "Comment=%comment%" %source%


TOC извлечённого CD

Трек | Старт | Длительность | Начальный сектор | Конечный сектор
––––––––––––––––––––––––––––––––––-
1 | 0:00.00 | 3:54.42 | 0 | 17591
2 | 3:54.42 | 3:17.69 | 17592 | 32435
3 | 7:12.36 | 3:58.01 | 32436 | 50286
4 | 11:10.37 | 3:13.18 | 50287 | 64779
5 | 14:23.55 | 3:48.43 | 64780 | 81922
6 | 18:12.23 | 3:24.62 | 81923 | 97284
7 | 21:37.10 | 2:54.29 | 97285 | 110363
8 | 24:31.39 | 3:23.71 | 110364 | 125659
9 | 27:55.35 | 6:44.61 | 125660 | 156020
10 | 34:40.21 | 3:39.51 | 156021 | 172496
11 | 38:19.72 | 12:02.17 | 172497 | 226663
12 | 50:22.14 | 5:27.68 | 226664 | 251256
13 | 55:50.07 | 3:31.66 | 251257 | 267147
14 | 59:21.73 | 4:33.61 | 267148 | 287683
15 | 63:55.59 | 5:43.46 | 287684 | 313454
16 | 69:39.30 | 4:23.31 | 313455 | 333210
17 | 74:02.61 | 5:25.27 | 333211 | 357612


Характеристики диапазона извлечения и сообщения об ошибках

Выбранный диапазон

Имя файла I:\MOI_RAZDACI\KISS_6CD_11.album_1.Compilation\KISS_6CD_11.album_1.Compilation_1999\Kiss_Alive!1975_1999\KISS - Alive!(oct.1975).wav

Пиковый уровень 100.0 %
Скорость извлечения 3.7 X
Качество диапазона 99.9 %
CRC теста 4F9E444A
CRC копии 4F9E444A
Копирование… OK

Ошибок не произошло


AccurateRip: сводка

Трек 1 : извлечено точно (доверие 3) [2BE82886] (AR v2)
Трек 2 : извлечено точно (доверие 3) [23F5DDEC] (AR v2)
Трек 3 : извлечено точно (доверие 3) [794D39F7] (AR v2)
Трек 4 : извлечено точно (доверие 3) [F413569A] (AR v2)
Трек 5 : извлечено точно (доверие 3) [19B21714] (AR v2)
Трек 6 : извлечено точно (доверие 3) [EE96FF72] (AR v2)
Трек 7 : извлечено точно (доверие 3) [A3710351] (AR v2)
Трек 8 : извлечено точно (доверие 3) [57A2FA25] (AR v2)
Трек 9 : извлечено точно (доверие 3) [36D938F0] (AR v2)
Трек 10 : извлечено точно (доверие 3) [A623A676] (AR v2)
Трек 11 : извлечено точно (доверие 3) [FB30C84A] (AR v2)
Трек 12 : извлечено точно (доверие 3) [FE10AB99] (AR v2)
Трек 13 : извлечено точно (доверие 3) [33A1C986] (AR v2)
Трек 14 : извлечено точно (доверие 3) [69225F54] (AR v2)
Трек 15 : извлечено точно (доверие 3) [4A295FBB] (AR v2)
Трек 16 : извлечено точно (доверие 3) [CF3CFC06] (AR v2)
Трек 17 : извлечено точно (доверие 3) [33845C6B] (AR v2)

Все треки извлечены точно

Конец отчёта

–– CUETools DB Plugin V2.1.6

[CTDB TOCID: Hqh4iObMS1o5kwkJXYoFYWU1UQQ-] found
Submit result: Hqh4iObMS1o5kwkJXYoFYWU1UQQ- has been confirmed
Track | CTDB Status
1 | (3/3) Accurately ripped
2 | (3/3) Accurately ripped
3 | (3/3) Accurately ripped
4 | (3/3) Accurately ripped
5 | (3/3) Accurately ripped
6 | (3/3) Accurately ripped
7 | (3/3) Accurately ripped
8 | (3/3) Accurately ripped
9 | (3/3) Accurately ripped
10 | (3/3) Accurately ripped
11 | (3/3) Accurately ripped
12 | (3/3) Accurately ripped
13 | (3/3) Accurately ripped
14 | (3/3) Accurately ripped
15 | (3/3) Accurately ripped
16 | (3/3) Accurately ripped
17 | (3/3) Accurately ripped


==== Контрольная сумма отчёта EE71DD07D131B158DCCB3E5884622AE18CFABCFBE604A2255AB72B7092B57757 ====


[CUETools log; Date: 22.06.2018 1:12:42; Version: 2.1.5]
[AccurateRip ID: 002cf355-024adaf1-ed12a011] found.
Track [ CRC | V2 ] Status
01 [8abff15a|2be82886] (0+3/3) Accurately ripped
02 [bdfcc61d|23f5ddec] (0+3/3) Accurately ripped
03 [ae53739f|794d39f7] (0+3/3) Accurately ripped
04 [34e26c3e|f413569a] (0+3/3) Accurately ripped
05 [6640dcd2|19b21714] (0+3/3) Accurately ripped
06 [b7b54dd2|ee96ff72] (0+3/3) Accurately ripped
07 [f74ed5eb|a3710351] (0+3/3) Accurately ripped
08 [c8084f1a|57a2fa25] (0+3/3) Accurately ripped
09 [94d9ba5b|36d938f0] (0+3/3) Accurately ripped
10 [e698aa16|a623a676] (0+3/3) Accurately ripped
11 [33c73018|fb30c84a] (0+3/3) Accurately ripped
12 [8664bbe7|fe10ab99] (0+3/3) Accurately ripped
13 [5fef37df|33a1c986] (0+3/3) Accurately ripped
14 [d56cefe0|69225f54] (0+3/3) Accurately ripped
15 [a0707dad|4a295fbb] (0+3/3) Accurately ripped
16 [97f1ac50|cf3cfc06] (0+3/3) Accurately ripped
17 [62ecf1f9|33845c6b] (0+3/3) Accurately ripped

Track Peak [ CRC32 ] [W/O NULL] [ LOG ]
– 100,0 [4F9E444A] [71B57B72] CRC32
01 99,9 [571FB6EF] [BABB4B42]
02 99,9 [C5E4110B] [0EE4E5B1]
03 99,9 [159D1745] [CEBEA59D]
04 99,9 [0609B81E] [29D508F3]
05 99,9 [84E83B8E] [4638C7B0]
06 99,9 [6646029E] [A00139AE]
07 100,0 [B4556AB5] [DB5BAB52]
08 99,9 [BDD2B6F9] [89C5A565]
09 99,9 [0DACCB92] [B60720DC]
10 99,9 [4730FCF1] [262CF250]
11 99,9 [DDEE1444] [5F816309]
12 99,9 [1F84ED12] [C44F0257]
13 85,6 [F78DDF54] [9628D3DC]
14 99,9 [0CF13815] [78614380]
15 99,9 [A7206FFB] [4EB373EE]
16 99,9 [6CF25E8F] [91C4C533]
17 99,9 [89D0F777] [EC65A8DC]


Kiss - Alive! (1975)

All thanks go to the original releaser

Kiss or Kiss in my Blog

Download Kiss - Alive! (1975: