Subcategories

Kitty Wells - The Queen Of Country Music, 1949-1958 (1993) 4 CD Box Set

Posted By: Designol
Kitty Wells - The Queen Of Country Music, 1949-1958 (1993) 4 CD Box Set

Kitty Wells - The Queen Of Country Music, 1949-1958 (1993) 4 CD Box Set
EAC | FLAC | Tracks (Cue&Log) ~ 1.23 Gb | Mp3 (CBR320) ~ 692 Mb | Scans included | 04:53:47
Traditional Country, Honky Tonk, Nashville Sound | Label: Bear Family | # BCD 15638 DI

Bear Family, the venerable German label that does reissue boxes of U.S. artists better than any American label – with the possible exception of Mosaic – has taken the cream of Kitty Wells' career and issued one of the most historically important collections in the history of country music. The Queen of Country Music is a four-CD box, with exhaustive biographical and session notes by Charles Wolfe that document, in their entirety, nine years of Ms. Wells career, from its inception through to its turning point and superstardom, the years 1949 to 1958; there are 114 tracks in all. Along with every major hit and B-side from the eras, the set includes classic original versions of "It Wasn't God Who Made Honky Tonk Angels," "Hey Joe!," "I Hear the Jukebox Playing," "Lonely Side of Town," "Making Believe," "Dust on the Bible," "The Place That Kills," "Right or Wrong," "Just When I Needed You," "The Great Speckled Bird," "Jealousy," and many others. There are plenty of alternate takes, unissued tracks and, as the session notes attest., Ms. Wells was the beginning point for many, including the legendary producer Owen Bradley, who worked with her and Patsy Cline simultaneously. Box sets such as this one, while geared to the collector and fanatic have, it would seem, limited appeal, but The Queen of Country Music can be looked at in a different light entirely. The story of Ms. Wells ascent to stardom also accurately reflects the changing tides in Nashville and the changing popular attitudes toward country music. Like Don Gibson, Ms. Wells, while remaining firmly a country, roots, and honky tonk vocalist, nonetheless, because of Bradley's production techniques and marketing changes ushered in by Chet Atkins at RCA, experienced a certain amount of crossover success due to massive jukebox play in barrooms and lounges all over the North, As in the Gibson set, this one offers a real view of Nashville's evolution into its real glory years from 1955-1970.

Review by Thom Jurek, Allmusic.com

Kitty Wells - The Queen Of Country Music, 1949-1958 (1993) 4 CD Box Set



Tracklist:

CD1 (1:16:42)

01. 1-01 Death At The Bar 1949 (3:03)
02. 1-02 Love Or Hate 1949 (2:52)
03. 1-03 Gathering Flowers For The Master's Bouquet 1949 (2:49)
04. 1-04 Don't Wait The Last Minute To Pray 1949 (2:43)
05. 1-05 How Far Is Heaven 1950 (2:54)
06. 1-06 My Mother 1950 (2:44)
07. 1-07 Make Up Your Mind 1950 (2:18)
08. 1-08 I'll Be All Smiles (Tonight) 1950 (2:46)
09. 1-09 It Wasn't God Who Made Honky Tonk Angels 1952 (2:33)
10. 1-10 I Don't Want Your Money, I Want Your Time 1952 (2:24)
11. 1-11 Searching For A Soldier's Grave 1952 (3:17)
12. 1-12 I'm Too Lonely To Smile 1952 (2:25)
13. 1-13 The Things I Might Have Been 1952 (2:26)
14. 1-14 I Heard The Jukebox Playing 1952 (2:18)
15. 1-15 A Wedding Ring Ago 1952 (2:22)
16. 1-16 Divided By Two 1952 (2:28)
17. 1-17 Crying Steel Guitar Waltz 1953 (2:34)
18. 1-18 Paying For That Back Street Affair 1953 (2:39)
19. 1-19 Icicles Hanging From Your Heart 1953 (2:13)
20. 1-20 I Don't Claim To Be An Angel 1953 (3:00)
21. 1-21 Honky Tonk Waltz 1953 (2:35)
22. 1-22 The Life They Live In Songs 1953 (2:45)
23. 1-23 You Said You Could Do Without Me 1953 (2:34)
24. 1-24 Whose Shoulder Will You Cry On 1953 (2:16)
25. 1-25 Hey Joe 1953 (2:37)
26. 1-26 My Cold Cold Heart Is Melting Now 1953 (2:54)
27. 1-27 I'll Love You Till The Day I Die 1953 (2:56)
28. 1-28 I've Kissed You My Last Time 1953 (2:29)
29. 1-29 I'm A Stranger In My Home [with Red Foley] 1953 (2:48)


CD2 (1:16:26)

01. 2-01 I Gave My Wedding Dress Away 1953 (2:40)
02. 2-02 Cheatin's A Sin 1953 (2:52)
03. 2-03 You'er Not Easy To Forget 1954 (2:40)
04. 2-04 Satisfied, So Satisfied 1987 (2:36)
05. 2-05 One By One [with Red Foley] 1954 (2:58)
06. 2-06 Release Me 1954 (2:52)
07. 2-07 After Dark 1954 (2:53)
08. 2-08 (Don't Hang Around) He's Married To Me 1954 (2:34)
09. 2-09 Thou Shalt Not Steal 1954 (2:32)
10. 2-10 Lonely Side Of Town 1955 (2:42)
11. 2-11 I Hope My Divorce Is Never Granted 1954 (2:22)
12. 2-12 I'm In Love With You 1954 (2:29)
13. 2-13 Make Believe [with Red Foley] 1954 (2:32)
14. 2-14 You And Me [with Red Foley] 1955 (2:49)
15. 2-15 As Long As I Live [with Red Foley] 1954 (2:35)
16. 2-16 No One But You [with Red Foley] 1955 (1:54)
17. 2-17 Makin' Believe 1955 (2:56)
18. 2-18 I'd Rather Stay Home 1956 (2:47)
19. 2-19 I Was Wrong 1987 (2:29)
20. 2-20 There's Poison In Your Heart 1955 (2:38)
21. 2-21 Goodbye Mr. Brown [with Roy Acuff] 1956 (2:38)
22. 2-22 Mother Hold Me Tight [with Roy Acuff] 1956 (2:57)
23. 2-23 Searching (For Someone Else) 1956 (2:27)
24. 2-24 How Far Is Heaven [with Carol Sue Wright] 1956 (2:56)
25. 2-25 Dust On The Bible 1956 (2:11)
26. 2-26 Beside You 1959 (2:53)
27. 2-27 I'm Counting On You 1956 (2:23)
28. 2-28 They Can't Take Your Love 1956 (2:33)
29. 2-29 I'm Tired Of Pretending 1959 (2:39)


CD3 (1:09:24)

01. 3-01 Oh! So Many Years [w Webb Pierce] 1956 (2:46)
02. 3-02 One Week Later [w Webb Pierce] 1957 (2:28)
03. 3-03 When I'm With You [w Webb Pierce] 1957 (2:35)
04. 3-04 Can You Find It In Your Heart [w Webb Pierce] 1956 (2:12)
05. 3-05 Repenting 1956 (2:40)
06. 3-06 I Guess I'll Go On Dreaming 1957 (2:30)
07. 3-07 Each Day 1957 (2:12)
08. 3-08 The Pace That Kills 1957 (2:27)
09. 3-09 A Change Of Heart 1957 (2:43)
10. 3-10 Stubborn Heart 1957 (2:51)
11. 3-11 Standing Room Only 1957 (2:23)
12. 3-12 A Mansion On The Hill 1957 (2:32)
13. 3-13 Your Wild Life's Gonna Get You Down 1987 (2:23)
14. 3-14 Right Or Wrong 1957 (2:52)
15. 3-15 The Winner Of Your Heart 1957 (2:02)
16. 3-16 Dancing With A Stranger 1957 (2:42)
17. 3-17 Three Ways (To Love You) 1957 (2:41)
18. 3-18 She's No Angel 1957 (2:31)
19. 3-19 Broken Marriage Vows [w Ray Crisp] 1957 (2:22)
20. 3-20 What About You 1957 (2:41)
21. 3-21 Sweeter Than The Flowers 1958 (3:24)
22. 3-22 You Can't Conceal A Broken Heart 1958 (2:38)
23. 3-23 Just When I Needed You 1958 (2:35)
24. 3-24 Lonely Street 1958 (2:24)
25. 3-25 That's Me Without You 1958 (2:23)
26. 3-26 Cheated Out Of Love 1958 (2:40)
27. 3-27 The Waltz Of The Angels 1958 (2:47)


CD4 (1:11:15)

01. 4-01 What About You 1958 (2:39)
02. 4-02 May You Never Be Alone 1958 (2:27)
03. 4-03 If Teardrops Were Pennies 1958 (2:41)
04. 4-04 Touch And Go Heart 1958 (2:47)
05. 4-05 My Used To Be Darling 1959 (2:27)
06. 4-06 (I'll Always Be Your) Fraulein 1957 (2:50)
07. 4-07 Love Me To Pieces 1958 (2:12)
08. 4-08 What I Believe Dear (Is All Up To You) 1957 (2:17)
09. 4-09 I Can't Stop Loving You 1958 (2:15)
10. 4-10 Slowly Dying 1987 (2:47)
11. 4-11 I Can't Help Wondering 1958 (2:10)
12. 4-12 He's Lost His Love For Me 1958 (2:18)
13. 4-13 Jealousy 1958 (2:30)
14. 4-14 Mommy For A Day 1958 (2:31)
15. 4-15 The Hands You're Holding Now 1958 (2:28)
16. 4-16 Let Me Help You Forget 1958 (2:42)
17. 4-17 All The Time 1958 (2:39)
18. 4-18 Dust On The Bible 1958 (2:18)
19. 4-19 (I've Got My) One Way Ticket To The Sky 1958 (2:38)
20. 4-20 I Heard My Saviour Call 1958 (2:07)
21. 4-21 I Dreamed I Searched Heaven For You 1958 (2:35)
22. 4-22 The Great Speckled Bird 1958 (2:23)
23. 4-23 Matthew Twenty-Four 1958 (2:04)
24. 4-24 I Need The Prayers 1958 (2:30)
25. 4-25 My Loved Ones Are Waiting For Me 1958 (2:28)
26. 4-26 Lord I'm Coming Home 1958 (2:22)
27. 4-27 He Will Set Your Fields On Fire 1958 (2:24)
28. 4-28 Lonesome Valley 1958 (2:21)
29. 4-29 We Buried Her Beneath The Willows 1958 (2:24)


Exact Audio Copy V0.99 prebeta 4 from 23. January 2008

EAC extraction logfile from 23. June 2009, 4:44

Kitty Wells / Kitty Wells - The Queen of Country Music, disc 1

Used drive : HL-DT-STDVD+-RW GSA-H73N Adapter: 1 ID: 0

Read mode : Secure
Utilize accurate stream : Yes
Defeat audio cache : Yes
Make use of C2 pointers : No

Read offset correction : 102
Overread into Lead-In and Lead-Out : No
Fill up missing offset samples with silence : Yes
Delete leading and trailing silent blocks : No
Null samples used in CRC calculations : Yes
Used interface : Native Win32 interface for Win NT & 2000
Gap handling : Appended to previous track

Used output format : User Defined Encoder
Selected bitrate : 1024 kBit/s
Quality : High
Add ID3 tag : No
Command line compressor : C:\Program Files\Exact Audio Copy\Flac\flac.exe
Additional command line options : -T "artist=%a" -T "title=%t" -T "album=%g" -T "date=%y" -T "tracknumber=%n" -T"genre=%m" %s


TOC of the extracted CD

Track | Start | Length | Start sector | End sector
––––––––––––––––––––––––––––-
1 | 0:00.00 | 3:02.50 | 0 | 13699
2 | 3:02.50 | 2:52.20 | 13700 | 26619
3 | 5:54.70 | 2:49.37 | 26620 | 39331
4 | 8:44.32 | 2:42.48 | 39332 | 51529
5 | 11:27.05 | 2:53.42 | 51530 | 64546
6 | 14:20.47 | 2:44.23 | 64547 | 76869
7 | 17:04.70 | 2:18.07 | 76870 | 87226
8 | 19:23.02 | 2:45.68 | 87227 | 99669
9 | 22:08.70 | 2:32.65 | 99670 | 111134
10 | 24:41.60 | 2:23.60 | 111135 | 121919
11 | 27:05.45 | 3:16.72 | 121920 | 136691
12 | 30:22.42 | 2:25.13 | 136692 | 147579
13 | 32:47.55 | 2:26.00 | 147580 | 158529
14 | 35:13.55 | 2:18.37 | 158530 | 168916
15 | 37:32.17 | 2:22.15 | 168917 | 179581
16 | 39:54.32 | 2:27.45 | 179582 | 190651
17 | 42:22.02 | 2:34.10 | 190652 | 202211
18 | 44:56.12 | 2:38.65 | 202212 | 214126
19 | 47:35.02 | 2:12.68 | 214127 | 224094
20 | 49:47.70 | 2:59.62 | 224095 | 237581
21 | 52:47.57 | 2:34.70 | 237582 | 249201
22 | 55:22.52 | 2:44.65 | 249202 | 261566
23 | 58:07.42 | 2:34.05 | 261567 | 273121
24 | 60:41.47 | 2:16.08 | 273122 | 283329
25 | 62:57.55 | 2:37.32 | 283330 | 295136
26 | 65:35.12 | 2:53.45 | 295137 | 308156
27 | 68:28.57 | 2:55.68 | 308157 | 321349
28 | 71:24.50 | 2:28.62 | 321350 | 332511
29 | 73:53.37 | 2:48.30 | 332512 | 345141


Track 1

Filename K:\flacs from cd's and cd-r's\Country\Kitty Wells\The Queen Of Country Music [4 disc set]\disc 1\1-01 Death At The Bar.wav

Pre-gap length 0:00:02.00

Peak level 89.9 %
Track quality 99.9 %
Test CRC E8126505
Copy CRC E8126505
Track not present in AccurateRip database
Copy OK

Track 2

Filename K:\flacs from cd's and cd-r's\Country\Kitty Wells\The Queen Of Country Music [4 disc set]\disc 1\1-02 Love Or Hate.wav

Pre-gap length 0:00:03.57

Peak level 92.1 %
Track quality 100.0 %
Test CRC 16D2BF01
Copy CRC 16D2BF01
Track not present in AccurateRip database
Copy OK

Track 3

Filename K:\flacs from cd's and cd-r's\Country\Kitty Wells\The Queen Of Country Music [4 disc set]\disc 1\1-03 Gathering Flowers For The Master's Bouquet.wav

Pre-gap length 0:00:04.28

Peak level 93.0 %
Track quality 100.0 %
Test CRC 6DACF622
Copy CRC 6DACF622
Track not present in AccurateRip database
Copy OK

Track 4

Filename K:\flacs from cd's and cd-r's\Country\Kitty Wells\The Queen Of Country Music [4 disc set]\disc 1\1-04 Don't Wait The Last Minute To Pray.wav

Pre-gap length 0:00:03.89

Peak level 92.1 %
Track quality 100.0 %
Test CRC E0804FA6
Copy CRC E0804FA6
Track not present in AccurateRip database
Copy OK

Track 5

Filename K:\flacs from cd's and cd-r's\Country\Kitty Wells\The Queen Of Country Music [4 disc set]\disc 1\1-05 How Far Is Heaven.wav

Pre-gap length 0:00:03.84

Peak level 83.0 %
Track quality 100.0 %
Test CRC 44EF9702
Copy CRC 44EF9702
Track not present in AccurateRip database
Copy OK

Track 6

Filename K:\flacs from cd's and cd-r's\Country\Kitty Wells\The Queen Of Country Music [4 disc set]\disc 1\1-06 My Mother.wav

Pre-gap length 0:00:03.66

Peak level 92.6 %
Track quality 100.0 %
Test CRC 539EC531
Copy CRC 539EC531
Track not present in AccurateRip database
Copy OK

Track 7

Filename K:\flacs from cd's and cd-r's\Country\Kitty Wells\The Queen Of Country Music [4 disc set]\disc 1\1-07 Make Up Your Mind.wav

Pre-gap length 0:00:02.60

Peak level 86.8 %
Track quality 100.0 %
Test CRC 83EA3872
Copy CRC 83EA3872
Track not present in AccurateRip database
Copy OK

Track 8

Filename K:\flacs from cd's and cd-r's\Country\Kitty Wells\The Queen Of Country Music [4 disc set]\disc 1\1-08 I'll Be All Smiles (Tonight).wav

Pre-gap length 0:00:04.22

Peak level 85.8 %
Track quality 100.0 %
Test CRC AA467262
Copy CRC AA467262
Track not present in AccurateRip database
Copy OK

Track 9

Filename K:\flacs from cd's and cd-r's\Country\Kitty Wells\The Queen Of Country Music [4 disc set]\disc 1\1-09 It Wasn't God Who Made Honky Tonk Angels.wav

Pre-gap length 0:00:04.26

Peak level 84.3 %
Track quality 100.0 %
Test CRC 382D0472
Copy CRC 382D0472
Track not present in AccurateRip database
Copy OK

Track 10

Filename K:\flacs from cd's and cd-r's\Country\Kitty Wells\The Queen Of Country Music [4 disc set]\disc 1\1-10 I Don't Want Your Money, I Want Your Time.wav

Pre-gap length 0:00:02.73

Peak level 82.0 %
Track quality 99.9 %
Test CRC DBECE8EC
Copy CRC DBECE8EC
Track not present in AccurateRip database
Copy OK

Track 11

Filename K:\flacs from cd's and cd-r's\Country\Kitty Wells\The Queen Of Country Music [4 disc set]\disc 1\1-11 Searching For A Soldier's Grave.wav

Pre-gap length 0:00:03.90

Peak level 73.3 %
Track quality 100.0 %
Test CRC 2C2B8332
Copy CRC 2C2B8332
Track not present in AccurateRip database
Copy OK

Track 12

Filename K:\flacs from cd's and cd-r's\Country\Kitty Wells\The Queen Of Country Music [4 disc set]\disc 1\1-12 I'm Too Lonely To Smile.wav

Pre-gap length 0:00:04.42

Peak level 79.8 %
Track quality 100.0 %
Test CRC 6B5B422F
Copy CRC 6B5B422F
Track not present in AccurateRip database
Copy OK

Track 13

Filename K:\flacs from cd's and cd-r's\Country\Kitty Wells\The Queen Of Country Music [4 disc set]\disc 1\1-13 The Things I Might Have Been.wav

Pre-gap length 0:00:03.86

Peak level 82.9 %
Track quality 100.0 %
Test CRC CE38C377
Copy CRC CE38C377
Track not present in AccurateRip database
Copy OK

Track 14

Filename K:\flacs from cd's and cd-r's\Country\Kitty Wells\The Queen Of Country Music [4 disc set]\disc 1\1-14 I Heard The Jukebox Playing.wav

Pre-gap length 0:00:03.78

Peak level 88.0 %
Track quality 99.9 %
Test CRC 76EB6720
Copy CRC 76EB6720
Track not present in AccurateRip database
Copy OK

Track 15

Filename K:\flacs from cd's and cd-r's\Country\Kitty Wells\The Queen Of Country Music [4 disc set]\disc 1\1-15 A Wedding Ring Ago.wav

Pre-gap length 0:00:03.86

Peak level 83.2 %
Track quality 100.0 %
Test CRC 1270D94A
Copy CRC 1270D94A
Track not present in AccurateRip database
Copy OK

Track 16

Filename K:\flacs from cd's and cd-r's\Country\Kitty Wells\The Queen Of Country Music [4 disc set]\disc 1\1-16 Divided By Two.wav

Peak level 85.3 %
Track quality 100.0 %
Test CRC DD2281BE
Copy CRC DD2281BE
Track not present in AccurateRip database
Copy OK

Track 17

Filename K:\flacs from cd's and cd-r's\Country\Kitty Wells\The Queen Of Country Music [4 disc set]\disc 1\1-17 Crying Steel Guitar Waltz.wav

Peak level 82.5 %
Track quality 100.0 %
Test CRC 64E09AAE
Copy CRC 64E09AAE
Track not present in AccurateRip database
Copy OK

Track 18

Filename K:\flacs from cd's and cd-r's\Country\Kitty Wells\The Queen Of Country Music [4 disc set]\disc 1\1-18 Paying For That Back Street Affair.wav

Peak level 86.7 %
Track quality 100.0 %
Test CRC B7D8CD8B
Copy CRC B7D8CD8B
Track not present in AccurateRip database
Copy OK

Track 19

Filename K:\flacs from cd's and cd-r's\Country\Kitty Wells\The Queen Of Country Music [4 disc set]\disc 1\1-19 Icicles Hanging From Your Heart.wav

Peak level 82.0 %
Track quality 100.0 %
Test CRC 654680F3
Copy CRC 654680F3
Track not present in AccurateRip database
Copy OK

Track 20

Filename K:\flacs from cd's and cd-r's\Country\Kitty Wells\The Queen Of Country Music [4 disc set]\disc 1\1-20 I Don't Claim To Be An Angel.wav

Peak level 78.4 %
Track quality 100.0 %
Test CRC F7EFCC68
Copy CRC F7EFCC68
Track not present in AccurateRip database
Copy OK

Track 21

Filename K:\flacs from cd's and cd-r's\Country\Kitty Wells\The Queen Of Country Music [4 disc set]\disc 1\1-21 Honky Tonk Waltz.wav

Peak level 83.0 %
Track quality 100.0 %
Test CRC BE5F46A2
Copy CRC BE5F46A2
Track not present in AccurateRip database
Copy OK

Track 22

Filename K:\flacs from cd's and cd-r's\Country\Kitty Wells\The Queen Of Country Music [4 disc set]\disc 1\1-22 The Life They Live In Songs.wav

Peak level 74.6 %
Track quality 100.0 %
Test CRC 44709FD6
Copy CRC 44709FD6
Track not present in AccurateRip database
Copy OK

Track 23

Filename K:\flacs from cd's and cd-r's\Country\Kitty Wells\The Queen Of Country Music [4 disc set]\disc 1\1-23 You Said You Could Do Without Me.wav

Peak level 79.6 %
Track quality 99.9 %
Test CRC 763CE6C9
Copy CRC 763CE6C9
Track not present in AccurateRip database
Copy OK

Track 24

Filename K:\flacs from cd's and cd-r's\Country\Kitty Wells\The Queen Of Country Music [4 disc set]\disc 1\1-24 Whose Shoulder Will You Cry On.wav

Peak level 79.7 %
Track quality 100.0 %
Test CRC F4DC9F5A
Copy CRC F4DC9F5A
Track not present in AccurateRip database
Copy OK

Track 25

Filename K:\flacs from cd's and cd-r's\Country\Kitty Wells\The Queen Of Country Music [4 disc set]\disc 1\1-25 Hey Joe.wav

Peak level 63.6 %
Track quality 100.0 %
Test CRC D9385C8C
Copy CRC D9385C8C
Track not present in AccurateRip database
Copy OK

Track 26

Filename K:\flacs from cd's and cd-r's\Country\Kitty Wells\The Queen Of Country Music [4 disc set]\disc 1\1-26 My Cold Cold Heart Is Melting Now.wav

Peak level 66.7 %
Track quality 100.0 %
Test CRC EBF29E7D
Copy CRC EBF29E7D
Track not present in AccurateRip database
Copy OK

Track 27

Filename K:\flacs from cd's and cd-r's\Country\Kitty Wells\The Queen Of Country Music [4 disc set]\disc 1\1-27 I'll Love You Till The Day I Die.wav

Peak level 68.9 %
Track quality 100.0 %
Test CRC 1AD4AB1E
Copy CRC 1AD4AB1E
Track not present in AccurateRip database
Copy OK

Track 28

Filename K:\flacs from cd's and cd-r's\Country\Kitty Wells\The Queen Of Country Music [4 disc set]\disc 1\1-28 I've Kissed You My Last Time.wav

Peak level 77.0 %
Track quality 100.0 %
Test CRC D6C4FC3B
Copy CRC D6C4FC3B
Track not present in AccurateRip database
Copy OK

Track 29

Filename K:\flacs from cd's and cd-r's\Country\Kitty Wells\The Queen Of Country Music [4 disc set]\disc 1\1-29 I'm A Stranger In My Home [with Red Foley].wav

Peak level 62.8 %
Track quality 100.0 %
Test CRC 68905D90
Copy CRC 68905D90
Track not present in AccurateRip database
Copy OK


None of the tracks are present in the AccurateRip database

No errors occurred

End of status report

foobar2000 1.2 / Dynamic Range Meter 1.1.1
log date: 2018-03-01 21:43:14

––––––––––––––––––––––––––––––––––––––––
Analyzed: Kitty Wells / Kitty Wells - The Queen of Country Music, disc 1
––––––––––––––––––––––––––––––––––––––––

DR Peak RMS Duration Track
––––––––––––––––––––––––––––––––––––––––
DR13 -0.92 dB -15.82 dB 3:03 01-1-01 Death At The Bar
DR11 -0.71 dB -13.68 dB 2:52 02-1-02 Love Or Hate
DR13 -0.63 dB -15.94 dB 2:49 03-1-03 Gathering Flowers For The Master's Bouquet
DR12 -0.71 dB -15.07 dB 2:43 04-1-04 Don't Wait The Last Minute To Pray
DR12 -1.61 dB -15.44 dB 2:54 05-1-05 How Far Is Heaven
DR12 -0.66 dB -15.49 dB 2:44 06-1-06 My Mother
DR12 -1.23 dB -15.36 dB 2:18 07-1-07 Make Up Your Mind
DR12 -1.33 dB -15.14 dB 2:46 08-1-08 I'll Be All Smiles (Tonight)
DR11 -1.48 dB -14.35 dB 2:33 09-1-09 It Wasn't God Who Made Honky Tonk Angels
DR10 -1.72 dB -14.03 dB 2:24 10-1-10 I Don't Want Your Money, I Want Your Time
DR9 -2.69 dB -14.13 dB 3:17 11-1-11 Searching For A Soldier's Grave
DR8 -1.95 dB -12.74 dB 2:25 12-1-12 I'm Too Lonely To Smile
DR11 -1.62 dB -14.22 dB 2:26 13-1-13 The Things I Might Have Been
DR11 -1.11 dB -14.14 dB 2:18 14-1-14 I Heard The Jukebox Playing
DR9 -1.59 dB -13.44 dB 2:22 15-1-15 A Wedding Ring Ago
DR10 -1.37 dB -13.33 dB 2:28 16-1-16 Divided By Two
DR10 -1.67 dB -13.85 dB 2:34 17-1-17 Crying Steel Guitar Waltz
DR11 -1.24 dB -14.06 dB 2:39 18-1-18 Paying For That Back Street Affair
DR9 -1.72 dB -13.34 dB 2:13 19-1-19 Icicles Hanging From Your Heart
DR10 -2.11 dB -13.85 dB 3:00 20-1-20 I Don't Claim To Be An Angel
DR9 -1.61 dB -13.25 dB 2:35 21-1-21 Honky Tonk Waltz
DR9 -2.54 dB -13.93 dB 2:45 22-1-22 The Life They Live In Songs
DR10 -1.98 dB -14.56 dB 2:34 23-1-23 You Said You Could Do Without Me
DR10 -1.96 dB -14.07 dB 2:16 24-1-24 Whose Shoulder Will You Cry On
DR10 -3.93 dB -15.59 dB 2:37 25-1-25 Hey Joe
DR8 -3.50 dB -14.70 dB 2:54 26-1-26 My Cold Cold Heart Is Melting Now
DR10 -3.23 dB -15.66 dB 2:56 27-1-27 I'll Love You Till The Day I Die
DR10 -2.26 dB -14.81 dB 2:29 28-1-28 I've Kissed You My Last Time
DR9 -4.04 dB -15.87 dB 2:48 29-1-29 I'm A Stranger In My Home [with Red Foley]
––––––––––––––––––––––––––––––––––––––––

Number of tracks: 29
Official DR value: DR10

Samplerate: 44100 Hz
Channels: 2
Bits per sample: 16
Bitrate: 724 kbps
Codec: FLAC
================================================================================


Exact Audio Copy V0.99 prebeta 4 from 23. January 2008

EAC extraction logfile from 23. June 2009, 6:25

Kitty Wells / The Queen Of Country Music Disc 2

Used drive : HL-DT-STDVD+-RW GSA-H73N Adapter: 1 ID: 0

Read mode : Secure
Utilize accurate stream : Yes
Defeat audio cache : Yes
Make use of C2 pointers : No

Read offset correction : 102
Overread into Lead-In and Lead-Out : No
Fill up missing offset samples with silence : Yes
Delete leading and trailing silent blocks : No
Null samples used in CRC calculations : Yes
Used interface : Native Win32 interface for Win NT & 2000
Gap handling : Appended to previous track

Used output format : User Defined Encoder
Selected bitrate : 1024 kBit/s
Quality : High
Add ID3 tag : No
Command line compressor : C:\Program Files\Exact Audio Copy\Flac\flac.exe
Additional command line options : -T "artist=%a" -T "title=%t" -T "album=%g" -T "date=%y" -T "tracknumber=%n" -T"genre=%m" %s


TOC of the extracted CD

Track | Start | Length | Start sector | End sector
––––––––––––––––––––––––––––-
1 | 0:00.00 | 2:39.67 | 0 | 11991
2 | 2:39.67 | 2:51.40 | 11992 | 24856
3 | 5:31.32 | 2:40.08 | 24857 | 36864
4 | 8:11.40 | 2:36.05 | 36865 | 48569
5 | 10:47.45 | 2:57.72 | 48570 | 61916
6 | 13:45.42 | 2:52.13 | 61917 | 74829
7 | 16:37.55 | 2:53.27 | 74830 | 87831
8 | 19:31.07 | 2:33.65 | 87832 | 99371
9 | 22:04.72 | 2:31.68 | 99372 | 110764
10 | 24:36.65 | 2:41.70 | 110765 | 122909
11 | 27:18.60 | 2:21.65 | 122910 | 133549
12 | 29:40.50 | 2:29.35 | 133550 | 144759
13 | 32:10.10 | 2:32.17 | 144760 | 156176
14 | 34:42.27 | 2:49.05 | 156177 | 168856
15 | 37:31.32 | 2:34.48 | 168857 | 180454
16 | 40:06.05 | 1:54.07 | 180455 | 189011
17 | 42:00.12 | 2:55.60 | 189012 | 202196
18 | 44:55.72 | 2:46.63 | 202197 | 214709
19 | 47:42.60 | 2:28.50 | 214710 | 225859
20 | 50:11.35 | 2:38.22 | 225860 | 237731
21 | 52:49.57 | 2:38.08 | 237732 | 249589
22 | 55:27.65 | 2:56.47 | 249590 | 262836
23 | 58:24.37 | 2:26.60 | 262837 | 273846
24 | 60:51.22 | 2:56.25 | 273847 | 287071
25 | 63:47.47 | 2:10.38 | 287072 | 296859
26 | 65:58.10 | 2:52.47 | 296860 | 309806
27 | 68:50.57 | 2:22.53 | 309807 | 320509
28 | 71:13.35 | 2:33.32 | 320510 | 332016
29 | 73:46.67 | 2:38.68 | 332017 | 343934


Track 1

Filename K:\flacs from cd's and cd-r's\Country\Kitty Wells\The Queen Of Country Music [4 disc set]\disc 2\2-01 I Gave My Wedding Dress Away 1953.wav

Pre-gap length 0:00:02.00

Peak level 66.4 %
Track quality 99.9 %
Test CRC 6E21C892
Copy CRC 6E21C892
Track not present in AccurateRip database
Copy OK

Track 2

Filename K:\flacs from cd's and cd-r's\Country\Kitty Wells\The Queen Of Country Music [4 disc set]\disc 2\2-02 Cheatin's A Sin 1953.wav

Pre-gap length 0:00:03.30

Peak level 75.8 %
Track quality 100.0 %
Test CRC B9BCA457
Copy CRC B9BCA457
Track not present in AccurateRip database
Copy OK

Track 3

Filename K:\flacs from cd's and cd-r's\Country\Kitty Wells\The Queen Of Country Music [4 disc set]\disc 2\2-03 You'er Not Easy To Forget 1954.wav

Pre-gap length 0:00:03.60

Peak level 84.7 %
Track quality 100.0 %
Test CRC 28D0652E
Copy CRC 28D0652E
Track not present in AccurateRip database
Copy OK

Track 4

Filename K:\flacs from cd's and cd-r's\Country\Kitty Wells\The Queen Of Country Music [4 disc set]\disc 2\2-04 Satisfied, So Satisfied 1987.wav

Pre-gap length 0:00:03.08

Peak level 72.8 %
Track quality 99.9 %
Test CRC 548365B6
Copy CRC 548365B6
Track not present in AccurateRip database
Copy OK

Track 5

Filename K:\flacs from cd's and cd-r's\Country\Kitty Wells\The Queen Of Country Music [4 disc set]\disc 2\2-05 One By One [with Red Foley] 1954.wav

Pre-gap length 0:00:04.04

Peak level 73.7 %
Track quality 99.9 %
Test CRC AF3FBEB7
Copy CRC AF3FBEB7
Track not present in AccurateRip database
Copy OK

Track 6

Filename K:\flacs from cd's and cd-r's\Country\Kitty Wells\The Queen Of Country Music [4 disc set]\disc 2\2-06 Release Me 1954.wav

Pre-gap length 0:00:03.97

Peak level 71.9 %
Track quality 100.0 %
Test CRC FB1CA33B
Copy CRC FB1CA33B
Track not present in AccurateRip database
Copy OK

Track 7

Filename K:\flacs from cd's and cd-r's\Country\Kitty Wells\The Queen Of Country Music [4 disc set]\disc 2\2-07 After Dark 1954.wav

Pre-gap length 0:00:04.34

Peak level 90.5 %
Track quality 99.9 %
Test CRC 15804054
Copy CRC 15804054
Track not present in AccurateRip database
Copy OK

Track 8

Filename K:\flacs from cd's and cd-r's\Country\Kitty Wells\The Queen Of Country Music [4 disc set]\disc 2\2-08 (Don't Hang Around) He's Married To Me 1954.wav

Pre-gap length 0:00:02.50

Peak level 69.2 %
Track quality 100.0 %
Test CRC 551826EE
Copy CRC 551826EE
Track not present in AccurateRip database
Copy OK

Track 9

Filename K:\flacs from cd's and cd-r's\Country\Kitty Wells\The Queen Of Country Music [4 disc set]\disc 2\2-09 Thou Shalt Not Steal 1954.wav

Pre-gap length 0:00:04.64

Peak level 82.9 %
Track quality 100.0 %
Test CRC 328F15CE
Copy CRC 328F15CE
Track not present in AccurateRip database
Copy OK

Track 10

Filename K:\flacs from cd's and cd-r's\Country\Kitty Wells\The Queen Of Country Music [4 disc set]\disc 2\2-10 Lonely Side Of Town 1955.wav

Pre-gap length 0:00:03.94

Peak level 83.2 %
Track quality 100.0 %
Test CRC 6D797D2D
Copy CRC 6D797D2D
Track not present in AccurateRip database
Copy OK

Track 11

Filename K:\flacs from cd's and cd-r's\Country\Kitty Wells\The Queen Of Country Music [4 disc set]\disc 2\2-11 I Hope My Divorce Is Never Granted 1954.wav

Pre-gap length 0:00:04.68

Peak level 81.4 %
Track quality 100.0 %
Test CRC 54641B48
Copy CRC 54641B48
Track not present in AccurateRip database
Copy OK

Track 12

Filename K:\flacs from cd's and cd-r's\Country\Kitty Wells\The Queen Of Country Music [4 disc set]\disc 2\2-12 I'm In Love With You 1954.wav

Pre-gap length 0:00:02.90

Peak level 83.8 %
Track quality 100.0 %
Test CRC 457961FA
Copy CRC 457961FA
Track not present in AccurateRip database
Copy OK

Track 13

Filename K:\flacs from cd's and cd-r's\Country\Kitty Wells\The Queen Of Country Music [4 disc set]\disc 2\2-13 Make Believe [with Red Foley] 1954.wav

Pre-gap length 0:00:04.64

Peak level 80.7 %
Track quality 100.0 %
Test CRC 32B87342
Copy CRC 32B87342
Track not present in AccurateRip database
Copy OK

Track 14

Filename K:\flacs from cd's and cd-r's\Country\Kitty Wells\The Queen Of Country Music [4 disc set]\disc 2\2-14 You And Me [with Red Foley] 1955.wav

Pre-gap length 0:00:03.77

Peak level 80.8 %
Track quality 100.0 %
Test CRC 304F10D7
Copy CRC 304F10D7
Track not present in AccurateRip database
Copy OK

Track 15

Filename K:\flacs from cd's and cd-r's\Country\Kitty Wells\The Queen Of Country Music [4 disc set]\disc 2\2-15 As Long As I Live [with Red Foley] 1954.wav

Pre-gap length 0:00:04.17

Peak level 79.9 %
Track quality 100.0 %
Test CRC D1CBF079
Copy CRC D1CBF079
Track not present in AccurateRip database
Copy OK

Track 16

Filename K:\flacs from cd's and cd-r's\Country\Kitty Wells\The Queen Of Country Music [4 disc set]\disc 2\2-16 No One But You [with Red Foley] 1955.wav

Peak level 80.1 %
Track quality 100.0 %
Test CRC 12791FB9
Copy CRC 12791FB9
Track not present in AccurateRip database
Copy OK

Track 17

Filename K:\flacs from cd's and cd-r's\Country\Kitty Wells\The Queen Of Country Music [4 disc set]\disc 2\2-17 Makin' Believe 1955.wav

Peak level 90.1 %
Track quality 100.0 %
Test CRC 6F730F71
Copy CRC 6F730F71
Track not present in AccurateRip database
Copy OK

Track 18

Filename K:\flacs from cd's and cd-r's\Country\Kitty Wells\The Queen Of Country Music [4 disc set]\disc 2\2-18 I'd Rather Stay Home 1956.wav

Peak level 86.0 %
Track quality 100.0 %
Test CRC B89BC5E0
Copy CRC B89BC5E0
Track not present in AccurateRip database
Copy OK

Track 19

Filename K:\flacs from cd's and cd-r's\Country\Kitty Wells\The Queen Of Country Music [4 disc set]\disc 2\2-19 I Was Wrong 1987.wav

Peak level 76.2 %
Track quality 100.0 %
Test CRC C8064239
Copy CRC C8064239
Track not present in AccurateRip database
Copy OK

Track 20

Filename K:\flacs from cd's and cd-r's\Country\Kitty Wells\The Queen Of Country Music [4 disc set]\disc 2\2-20 There's Poison In Your Heart 1955.wav

Peak level 75.3 %
Track quality 100.0 %
Test CRC 85993ED3
Copy CRC 85993ED3
Track not present in AccurateRip database
Copy OK

Track 21

Filename K:\flacs from cd's and cd-r's\Country\Kitty Wells\The Queen Of Country Music [4 disc set]\disc 2\2-21 Goodbye Mr. Brown [with Roy Acuff] 1956.wav

Peak level 82.3 %
Track quality 100.0 %
Test CRC EBAA53F7
Copy CRC EBAA53F7
Track not present in AccurateRip database
Copy OK

Track 22

Filename K:\flacs from cd's and cd-r's\Country\Kitty Wells\The Queen Of Country Music [4 disc set]\disc 2\2-22 Mother Hold Me Tight [with Roy Acuff] 1956.wav

Peak level 87.6 %
Track quality 99.9 %
Test CRC B8B0E1F3
Copy CRC B8B0E1F3
Track not present in AccurateRip database
Copy OK

Track 23

Filename K:\flacs from cd's and cd-r's\Country\Kitty Wells\The Queen Of Country Music [4 disc set]\disc 2\2-23 Searching (For Someone Else) 1956.wav

Peak level 83.9 %
Track quality 99.9 %
Test CRC CBD5F66F
Copy CRC CBD5F66F
Track not present in AccurateRip database
Copy OK

Track 24

Filename K:\flacs from cd's and cd-r's\Country\Kitty Wells\The Queen Of Country Music [4 disc set]\disc 2\2-24 How Far Is Heaven [with Carol Sue Wright] 1956.wav

Peak level 79.4 %
Track quality 99.9 %
Test CRC C5E393F4
Copy CRC C5E393F4
Track not present in AccurateRip database
Copy OK

Track 25

Filename K:\flacs from cd's and cd-r's\Country\Kitty Wells\The Queen Of Country Music [4 disc set]\disc 2\2-25 Dust On The Bible 1956.wav

Peak level 78.4 %
Track quality 99.9 %
Test CRC CDEF6AC6
Copy CRC CDEF6AC6
Track not present in AccurateRip database
Copy OK

Track 26

Filename K:\flacs from cd's and cd-r's\Country\Kitty Wells\The Queen Of Country Music [4 disc set]\disc 2\2-26 Beside You 1959.wav

Peak level 81.0 %
Track quality 100.0 %
Test CRC C3C1E3EC
Copy CRC C3C1E3EC
Track not present in AccurateRip database
Copy OK

Track 27

Filename K:\flacs from cd's and cd-r's\Country\Kitty Wells\The Queen Of Country Music [4 disc set]\disc 2\2-27 I'm Counting On You 1956.wav

Peak level 81.9 %
Track quality 100.0 %
Test CRC DD40E091
Copy CRC DD40E091
Track not present in AccurateRip database
Copy OK

Track 28

Filename K:\flacs from cd's and cd-r's\Country\Kitty Wells\The Queen Of Country Music [4 disc set]\disc 2\2-28 They Can't Take Your Love 1956.wav

Peak level 80.6 %
Track quality 99.9 %
Test CRC 19289EB7
Copy CRC 19289EB7
Track not present in AccurateRip database
Copy OK

Track 29

Filename K:\flacs from cd's and cd-r's\Country\Kitty Wells\The Queen Of Country Music [4 disc set]\disc 2\2-29 I'm Tired Of Pretending 1959.wav

Peak level 86.7 %
Track quality 100.0 %
Test CRC 87FCE680
Copy CRC 87FCE680
Track not present in AccurateRip database
Copy OK


None of the tracks are present in the AccurateRip database

No errors occurred

End of status report

foobar2000 1.2 / Dynamic Range Meter 1.1.1
log date: 2018-03-01 21:43:36

––––––––––––––––––––––––––––––––––––––––
Analyzed: Kitty Wells / The Queen Of Country Music Disc 2
––––––––––––––––––––––––––––––––––––––––

DR Peak RMS Duration Track
––––––––––––––––––––––––––––––––––––––––
DR7 -3.55 dB -14.06 dB 2:40 01-2-01 I Gave My Wedding Dress Away 1953
DR9 -2.40 dB -13.69 dB 2:52 02-2-02 Cheatin's A Sin 1953
DR8 -1.44 dB -13.31 dB 2:40 03-2-03 You'er Not Easy To Forget 1954
DR8 -2.75 dB -14.31 dB 2:36 04-2-04 Satisfied, So Satisfied 1987
DR9 -2.64 dB -14.73 dB 2:58 05-2-05 One By One [with Red Foley] 1954
DR9 -2.86 dB -14.12 dB 2:52 06-2-06 Release Me 1954
DR11 -0.87 dB -14.61 dB 2:53 07-2-07 After Dark 1954
DR9 -3.20 dB -14.86 dB 2:34 08-2-08 (Don't Hang Around) He's Married To Me 1954
DR10 -1.62 dB -13.72 dB 2:32 09-2-09 Thou Shalt Not Steal 1954
DR10 -1.59 dB -14.37 dB 2:42 10-2-10 Lonely Side Of Town 1955
DR11 -1.79 dB -16.67 dB 2:22 11-2-11 I Hope My Divorce Is Never Granted 1954
DR11 -1.53 dB -14.40 dB 2:29 12-2-12 I'm In Love With You 1954
DR12 -1.86 dB -15.80 dB 2:32 13-2-13 Make Believe [with Red Foley] 1954
DR11 -1.84 dB -15.36 dB 2:49 14-2-14 You And Me [with Red Foley] 1955
DR12 -1.94 dB -15.64 dB 2:35 15-2-15 As Long As I Live [with Red Foley] 1954
DR11 -1.93 dB -14.93 dB 1:54 16-2-16 No One But You [with Red Foley] 1955
DR12 -0.91 dB -15.95 dB 2:56 17-2-17 Makin' Believe 1955
DR12 -1.31 dB -15.78 dB 2:47 18-2-18 I'd Rather Stay Home 1956
DR10 -2.35 dB -14.86 dB 2:29 19-2-19 I Was Wrong 1987
DR11 -2.46 dB -15.65 dB 2:38 20-2-20 There's Poison In Your Heart 1955
DR10 -1.69 dB -13.64 dB 2:38 21-2-21 Goodbye Mr. Brown [with Roy Acuff] 1956
DR11 -1.14 dB -15.11 dB 2:57 22-2-22 Mother Hold Me Tight [with Roy Acuff] 1956
DR10 -1.52 dB -13.95 dB 2:27 23-2-23 Searching (For Someone Else) 1956
DR9 -2.00 dB -14.63 dB 2:56 24-2-24 How Far Is Heaven [with Carol Sue Wright] 1956
DR11 -2.10 dB -14.78 dB 2:11 25-2-25 Dust On The Bible 1956
DR12 -1.82 dB -16.29 dB 2:53 26-2-26 Beside You 1959
DR13 -1.73 dB -16.59 dB 2:23 27-2-27 I'm Counting On You 1956
DR11 -1.87 dB -15.12 dB 2:33 28-2-28 They Can't Take Your Love 1956
DR12 -1.24 dB -16.36 dB 2:39 29-2-29 I'm Tired Of Pretending 1959
––––––––––––––––––––––––––––––––––––––––

Number of tracks: 29
Official DR value: DR10

Samplerate: 44100 Hz
Channels: 2
Bits per sample: 16
Bitrate: 446 kbps
Codec: FLAC
================================================================================


Exact Audio Copy V0.99 prebeta 4 from 23. January 2008

EAC extraction logfile from 23. June 2009, 18:57

kitty wells / the queen of country music disc 3

Used drive : HL-DT-STDVD+-RW GSA-H73N Adapter: 1 ID: 0

Read mode : Secure
Utilize accurate stream : Yes
Defeat audio cache : Yes
Make use of C2 pointers : No

Read offset correction : 102
Overread into Lead-In and Lead-Out : No
Fill up missing offset samples with silence : Yes
Delete leading and trailing silent blocks : No
Null samples used in CRC calculations : Yes
Used interface : Native Win32 interface for Win NT & 2000
Gap handling : Appended to previous track

Used output format : User Defined Encoder
Selected bitrate : 1024 kBit/s
Quality : High
Add ID3 tag : No
Command line compressor : C:\Program Files\Exact Audio Copy\Flac\flac.exe
Additional command line options : -T "artist=%a" -T "title=%t" -T "album=%g" -T "date=%y" -T "tracknumber=%n" -T"genre=%m" %s


TOC of the extracted CD

Track | Start | Length | Start sector | End sector
––––––––––––––––––––––––––––-
1 | 0:00.00 | 2:46.05 | 0 | 12454
2 | 2:46.05 | 2:28.35 | 12455 | 23589
3 | 5:14.40 | 2:35.27 | 23590 | 35241
4 | 7:49.67 | 2:11.73 | 35242 | 45139
5 | 10:01.65 | 2:40.37 | 45140 | 57176
6 | 12:42.27 | 2:29.53 | 57177 | 68404
7 | 15:12.05 | 2:11.52 | 68405 | 78281
8 | 17:23.57 | 2:27.03 | 78282 | 89309
9 | 19:50.60 | 2:42.57 | 89310 | 101516
10 | 22:33.42 | 2:50.43 | 101517 | 114309
11 | 25:24.10 | 2:23.00 | 114310 | 125034
12 | 27:47.10 | 2:32.05 | 125035 | 136439
13 | 30:19.15 | 2:22.50 | 136440 | 147139
14 | 32:41.65 | 2:52.25 | 147140 | 160064
15 | 35:34.15 | 2:01.45 | 160065 | 169184
16 | 37:35.60 | 2:42.17 | 169185 | 181351
17 | 40:18.02 | 2:40.55 | 181352 | 193406
18 | 42:58.57 | 2:31.28 | 193407 | 204759
19 | 45:30.10 | 2:21.72 | 204760 | 215406
20 | 47:52.07 | 2:41.18 | 215407 | 227499
21 | 50:33.25 | 3:24.10 | 227500 | 242809
22 | 53:57.35 | 2:37.42 | 242810 | 254626
23 | 56:35.02 | 2:34.73 | 254627 | 266249
24 | 59:10.00 | 2:23.62 | 266250 | 277036
25 | 61:33.62 | 2:23.33 | 277037 | 287794
26 | 63:57.20 | 2:40.30 | 287795 | 299824
27 | 66:37.50 | 2:46.57 | 299825 | 312331


Track 1

Filename K:\flacs from cd's and cd-r's\Country\Kitty Wells\The Queen Of Country Music [4 disc set]\disc 3\3-01 Oh! So Many Years [w Webb Pierce] 1956.wav

Pre-gap length 0:00:02.00

Peak level 77.1 %
Track quality 100.0 %
Test CRC A4B5FBFA
Copy CRC A4B5FBFA
Track not present in AccurateRip database
Copy OK

Track 2

Filename K:\flacs from cd's and cd-r's\Country\Kitty Wells\The Queen Of Country Music [4 disc set]\disc 3\3-02 One Week Later [w Webb Pierce] 1957.wav

Pre-gap length 0:00:03.57

Peak level 81.9 %
Track quality 100.0 %
Test CRC EB640917
Copy CRC EB640917
Track not present in AccurateRip database
Copy OK

Track 3

Filename K:\flacs from cd's and cd-r's\Country\Kitty Wells\The Queen Of Country Music [4 disc set]\disc 3\3-03 When I'm With You [w Webb Pierce] 1957.wav

Pre-gap length 0:00:03.26

Peak level 84.8 %
Track quality 100.0 %
Test CRC B7C5EDC9
Copy CRC B7C5EDC9
Track not present in AccurateRip database
Copy OK

Track 4

Filename K:\flacs from cd's and cd-r's\Country\Kitty Wells\The Queen Of Country Music [4 disc set]\disc 3\3-04 Can You Find It In Your Heart [w Webb Pierce] 1956.wav

Pre-gap length 0:00:02.26

Peak level 89.1 %
Track quality 100.0 %
Test CRC 98889989
Copy CRC 98889989
Track not present in AccurateRip database
Copy OK

Track 5

Filename K:\flacs from cd's and cd-r's\Country\Kitty Wells\The Queen Of Country Music [4 disc set]\disc 3\3-05 Repenting 1956.wav

Pre-gap length 0:00:03.73

Peak level 81.9 %
Track quality 100.0 %
Test CRC E4AB1F0C
Copy CRC E4AB1F0C
Track not present in AccurateRip database
Copy OK

Track 6

Filename K:\flacs from cd's and cd-r's\Country\Kitty Wells\The Queen Of Country Music [4 disc set]\disc 3\3-06 I Guess I'll Go On Dreaming 1957.wav

Pre-gap length 0:00:03.76

Peak level 74.5 %
Track quality 100.0 %
Test CRC CE6CF6DF
Copy CRC CE6CF6DF
Track not present in AccurateRip database
Copy OK

Track 7

Filename K:\flacs from cd's and cd-r's\Country\Kitty Wells\The Queen Of Country Music [4 disc set]\disc 3\3-07 Each Day 1957.wav

Pre-gap length 0:00:03.80

Peak level 87.7 %
Track quality 100.0 %
Test CRC 0EDA6113
Copy CRC 0EDA6113
Track not present in AccurateRip database
Copy OK

Track 8

Filename K:\flacs from cd's and cd-r's\Country\Kitty Wells\The Queen Of Country Music [4 disc set]\disc 3\3-08 The Pace That Kills 1957.wav

Pre-gap length 0:00:04.42

Peak level 80.9 %
Track quality 100.0 %
Test CRC CB4A6EE3
Copy CRC CB4A6EE3
Track not present in AccurateRip database
Copy OK

Track 9

Filename K:\flacs from cd's and cd-r's\Country\Kitty Wells\The Queen Of Country Music [4 disc set]\disc 3\3-09 A Change Of Heart 1957.wav

Pre-gap length 0:00:04.40

Peak level 83.3 %
Track quality 100.0 %
Test CRC 846C762F
Copy CRC 846C762F
Track not present in AccurateRip database
Copy OK

Track 10

Filename K:\flacs from cd's and cd-r's\Country\Kitty Wells\The Queen Of Country Music [4 disc set]\disc 3\3-10 Stubborn Heart 1957.wav

Pre-gap length 0:00:04.29

Peak level 77.7 %
Track quality 100.0 %
Test CRC C4358E01
Copy CRC C4358E01
Track not present in AccurateRip database
Copy OK

Track 11

Filename K:\flacs from cd's and cd-r's\Country\Kitty Wells\The Queen Of Country Music [4 disc set]\disc 3\3-11 Standing Room Only 1957.wav

Pre-gap length 0:00:12.80

Peak level 79.0 %
Track quality 100.0 %
Test CRC D9589F02
Copy CRC D9589F02
Track not present in AccurateRip database
Copy OK

Track 12

Filename K:\flacs from cd's and cd-r's\Country\Kitty Wells\The Queen Of Country Music [4 disc set]\disc 3\3-12 A Mansion On The Hill 1957.wav

Pre-gap length 0:00:02.77

Peak level 69.3 %
Track quality 99.9 %
Test CRC CFFC067E
Copy CRC CFFC067E
Track not present in AccurateRip database
Copy OK

Track 13

Filename K:\flacs from cd's and cd-r's\Country\Kitty Wells\The Queen Of Country Music [4 disc set]\disc 3\3-13 Your Wild Life's Gonna Get You Down 1987.wav

Pre-gap length 0:00:03.66

Peak level 82.8 %
Track quality 100.0 %
Test CRC 5DF3BA48
Copy CRC 5DF3BA48
Track not present in AccurateRip database
Copy OK

Track 14

Filename K:\flacs from cd's and cd-r's\Country\Kitty Wells\The Queen Of Country Music [4 disc set]\disc 3\3-14 Right Or Wrong 1957.wav

Pre-gap length 0:00:04.44

Peak level 78.3 %
Track quality 99.9 %
Test CRC 1F090DCC
Copy CRC 1F090DCC
Track not present in AccurateRip database
Copy OK

Track 15

Filename K:\flacs from cd's and cd-r's\Country\Kitty Wells\The Queen Of Country Music [4 disc set]\disc 3\3-15 The Winner Of Your Heart 1957.wav

Pre-gap length 0:00:02.97

Peak level 84.0 %
Track quality 100.0 %
Test CRC 8C718406
Copy CRC 8C718406
Track not present in AccurateRip database
Copy OK

Track 16

Filename K:\flacs from cd's and cd-r's\Country\Kitty Wells\The Queen Of Country Music [4 disc set]\disc 3\3-16 Dancing With A Stranger 1957.wav

Peak level 66.3 %
Track quality 100.0 %
Test CRC 610F902D
Copy CRC 610F902D
Track not present in AccurateRip database
Copy OK

Track 17

Filename K:\flacs from cd's and cd-r's\Country\Kitty Wells\The Queen Of Country Music [4 disc set]\disc 3\3-17 Three Ways (To Love You) 1957.wav

Peak level 74.1 %
Track quality 99.9 %
Test CRC 34A82101
Copy CRC 34A82101
Track not present in AccurateRip database
Copy OK

Track 18

Filename K:\flacs from cd's and cd-r's\Country\Kitty Wells\The Queen Of Country Music [4 disc set]\disc 3\3-18 She's No Angel 1957.wav

Peak level 71.6 %
Track quality 100.0 %
Test CRC 24ED6CEA
Copy CRC 24ED6CEA
Track not present in AccurateRip database
Copy OK

Track 19

Filename K:\flacs from cd's and cd-r's\Country\Kitty Wells\The Queen Of Country Music [4 disc set]\disc 3\3-19 Broken Marriage Vows [w Ray Crisp] 1957.wav

Peak level 77.9 %
Track quality 100.0 %
Test CRC 5995AB4D
Copy CRC 5995AB4D
Track not present in AccurateRip database
Copy OK

Track 20

Filename K:\flacs from cd's and cd-r's\Country\Kitty Wells\The Queen Of Country Music [4 disc set]\disc 3\3-20 What About You 1987.wav

Peak level 95.2 %
Track quality 100.0 %
Test CRC 3EE5D142
Copy CRC 3EE5D142
Track not present in AccurateRip database
Copy OK

Track 21

Filename K:\flacs from cd's and cd-r's\Country\Kitty Wells\The Queen Of Country Music [4 disc set]\disc 3\3-21 Sweeter Than The Flowers 1958.wav

Peak level 82.3 %
Track quality 100.0 %
Test CRC 1A3DBA16
Copy CRC 1A3DBA16
Track not present in AccurateRip database
Copy OK

Track 22

Filename K:\flacs from cd's and cd-r's\Country\Kitty Wells\The Queen Of Country Music [4 disc set]\disc 3\3-22 You Can't Conceal A Broken Heart 1958.wav

Peak level 82.8 %
Track quality 100.0 %
Test CRC 78E2D2C4
Copy CRC 78E2D2C4
Track not present in AccurateRip database
Copy OK

Track 23

Filename K:\flacs from cd's and cd-r's\Country\Kitty Wells\The Queen Of Country Music [4 disc set]\disc 3\3-23 Just When I Needed You 1958.wav

Peak level 82.8 %
Track quality 100.0 %
Test CRC 35499D3D
Copy CRC 35499D3D
Track not present in AccurateRip database
Copy OK

Track 24

Filename K:\flacs from cd's and cd-r's\Country\Kitty Wells\The Queen Of Country Music [4 disc set]\disc 3\3-24 Lonely Street 1958.wav

Peak level 77.5 %
Track quality 100.0 %
Test CRC B8BCB1B8
Copy CRC B8BCB1B8
Track not present in AccurateRip database
Copy OK

Track 25

Filename K:\flacs from cd's and cd-r's\Country\Kitty Wells\The Queen Of Country Music [4 disc set]\disc 3\3-25 That's Me Without You 1958.wav

Peak level 77.9 %
Track quality 99.9 %
Test CRC 7E160EDB
Copy CRC 7E160EDB
Track not present in AccurateRip database
Copy OK

Track 26

Filename K:\flacs from cd's and cd-r's\Country\Kitty Wells\The Queen Of Country Music [4 disc set]\disc 3\3-26 Cheated Out Of Love 1958.wav

Peak level 88.5 %
Track quality 99.9 %
Test CRC 547113D3
Copy CRC 547113D3
Track not present in AccurateRip database
Copy OK

Track 27

Filename K:\flacs from cd's and cd-r's\Country\Kitty Wells\The Queen Of Country Music [4 disc set]\disc 3\3-27 The Waltz Of The Angels 1958.wav

Peak level 91.8 %
Track quality 100.0 %
Test CRC 17B3A9F3
Copy CRC 17B3A9F3
Track not present in AccurateRip database
Copy OK


None of the tracks are present in the AccurateRip database

No errors occurred

End of status report

foobar2000 1.2 / Dynamic Range Meter 1.1.1
log date: 2018-03-01 21:43:56

––––––––––––––––––––––––––––––––––––––––
Analyzed: kitty wells / the queen of country music disc 3
––––––––––––––––––––––––––––––––––––––––

DR Peak RMS Duration Track
––––––––––––––––––––––––––––––––––––––––
DR11 -2.25 dB -15.48 dB 2:46 01-3-01 Oh! So Many Years [w Webb Pierce] 1956
DR11 -1.73 dB -14.93 dB 2:28 02-3-02 One Week Later [w Webb Pierce] 1957
DR12 -1.42 dB -16.00 dB 2:35 03-3-03 When I'm With You [w Webb Pierce] 1957
DR11 -1.00 dB -14.87 dB 2:12 04-3-04 Can You Find It In Your Heart [w Webb Pierce] 1956
DR11 -1.72 dB -16.02 dB 2:40 05-3-05 Repenting 1956
DR11 -2.55 dB -15.89 dB 2:30 06-3-06 I Guess I'll Go On Dreaming 1957
DR12 -1.14 dB -16.07 dB 2:12 07-3-07 Each Day 1957
DR12 -1.83 dB -16.14 dB 2:27 08-3-08 The Pace That Kills 1957
DR12 -1.58 dB -17.08 dB 2:43 09-3-09 A Change Of Heart 1957
DR13 -2.18 dB -18.29 dB 2:51 10-3-10 Stubborn Heart 1957
DR13 -2.04 dB -17.76 dB 2:23 11-3-11 Standing Room Only 1957
DR10 -3.18 dB -16.71 dB 2:32 12-3-12 A Mansion On The Hill 1957
DR10 -1.64 dB -14.93 dB 2:23 13-3-13 Your Wild Life's Gonna Get You Down 1987
DR11 -2.12 dB -16.06 dB 2:52 14-3-14 Right Or Wrong 1957
DR12 -1.51 dB -15.75 dB 2:02 15-3-15 The Winner Of Your Heart 1957
DR12 -3.57 dB -18.01 dB 2:42 16-3-16 Dancing With A Stranger 1957
DR12 -2.60 dB -16.76 dB 2:41 17-3-17 Three Ways (To Love You) 1957
DR11 -2.90 dB -16.56 dB 2:31 18-3-18 She's No Angel 1957
DR10 -2.16 dB -15.03 dB 2:22 19-3-19 Broken Marriage Vows [w Ray Crisp] 1957
DR12 -0.42 dB -15.39 dB 2:41 20-3-20 What About You 1987
DR12 -1.69 dB -15.58 dB 3:24 21-3-21 Sweeter Than The Flowers 1958
DR12 -1.63 dB -16.27 dB 2:38 22-3-22 You Can't Conceal A Broken Heart 1958
DR12 -1.63 dB -16.17 dB 2:35 23-3-23 Just When I Needed You 1958
DR11 -2.21 dB -15.35 dB 2:24 24-3-24 Lonely Street 1958
DR10 -2.16 dB -15.03 dB 2:23 25-3-25 That's Me Without You 1958
DR11 -1.06 dB -14.34 dB 2:40 26-3-26 Cheated Out Of Love 1958
DR11 -0.74 dB -14.48 dB 2:47 27-3-27 The Waltz Of The Angels 1958
––––––––––––––––––––––––––––––––––––––––

Number of tracks: 27
Official DR value: DR11

Samplerate: 44100 Hz
Channels: 2
Bits per sample: 16
Bitrate: 449 kbps
Codec: FLAC
================================================================================


Exact Audio Copy V0.99 prebeta 4 from 23. January 2008

EAC extraction logfile from 23. June 2009, 20:20

Kitty Wells / The Queen Of Country Music Disc 4

Used drive : HL-DT-STDVD+-RW GSA-H73N Adapter: 1 ID: 0

Read mode : Secure
Utilize accurate stream : Yes
Defeat audio cache : Yes
Make use of C2 pointers : No

Read offset correction : 102
Overread into Lead-In and Lead-Out : No
Fill up missing offset samples with silence : Yes
Delete leading and trailing silent blocks : No
Null samples used in CRC calculations : Yes
Used interface : Native Win32 interface for Win NT & 2000
Gap handling : Appended to previous track

Used output format : User Defined Encoder
Selected bitrate : 1024 kBit/s
Quality : High
Add ID3 tag : No
Command line compressor : C:\Program Files\Exact Audio Copy\Flac\flac.exe
Additional command line options : -T "artist=%a" -T "title=%t" -T "album=%g" -T "date=%y" -T "tracknumber=%n" -T"genre=%m" %s


TOC of the extracted CD

Track | Start | Length | Start sector | End sector
––––––––––––––––––––––––––––-
1 | 0:00.00 | 2:39.35 | 0 | 11959
2 | 2:39.35 | 2:27.00 | 11960 | 22984
3 | 5:06.35 | 2:40.52 | 22985 | 35036
4 | 7:47.12 | 2:47.00 | 35037 | 47561
5 | 10:34.12 | 2:26.60 | 47562 | 58571
6 | 13:00.72 | 2:49.38 | 58572 | 71284
7 | 15:50.35 | 2:11.70 | 71285 | 81179
8 | 18:02.30 | 2:17.25 | 81180 | 91479
9 | 20:19.55 | 2:15.17 | 91480 | 101621
10 | 22:34.72 | 2:47.25 | 101622 | 114171
11 | 25:22.22 | 2:09.63 | 114172 | 123909
12 | 27:32.10 | 2:18.25 | 123910 | 134284
13 | 29:50.35 | 2:29.62 | 134285 | 145521
14 | 32:20.22 | 2:30.73 | 145522 | 156844
15 | 34:51.20 | 2:27.65 | 156845 | 167934
16 | 37:19.10 | 2:42.05 | 167935 | 180089
17 | 40:01.15 | 2:38.60 | 180090 | 191999
18 | 42:40.00 | 2:18.37 | 192000 | 202386
19 | 44:58.37 | 2:37.45 | 202387 | 214206
20 | 47:36.07 | 2:07.25 | 214207 | 223756
21 | 49:43.32 | 2:34.48 | 223757 | 235354
22 | 52:18.05 | 2:22.55 | 235355 | 246059
23 | 54:40.60 | 2:04.27 | 246060 | 255386
24 | 56:45.12 | 2:30.23 | 255387 | 266659
25 | 59:15.35 | 2:28.10 | 266660 | 277769
26 | 61:43.45 | 2:22.07 | 277770 | 288426
27 | 64:05.52 | 2:24.08 | 288427 | 299234
28 | 66:29.60 | 2:21.15 | 299235 | 309824
29 | 68:51.00 | 2:24.22 | 309825 | 320646


Track 1

Filename K:\flacs from cd's and cd-r's\Country\Kitty Wells\The Queen Of Country Music [4 disc set]\disc 4\4-01 What About You 1958.wav

Pre-gap length 0:00:02.00

Peak level 81.0 %
Track quality 100.0 %
Test CRC 70F9B73A
Copy CRC 70F9B73A
Track not present in AccurateRip database
Copy OK

Track 2

Filename K:\flacs from cd's and cd-r's\Country\Kitty Wells\The Queen Of Country Music [4 disc set]\disc 4\4-02 May You Never Be Alone 1958.wav

Pre-gap length 0:00:03.06

Peak level 95.7 %
Track quality 100.0 %
Test CRC 53720053
Copy CRC 53720053
Track not present in AccurateRip database
Copy OK

Track 3

Filename K:\flacs from cd's and cd-r's\Country\Kitty Wells\The Queen Of Country Music [4 disc set]\disc 4\4-03 If Teardrops Were Pennies 1958.wav

Pre-gap length 0:00:02.73

Peak level 79.4 %
Track quality 100.0 %
Test CRC 3F3B4D9A
Copy CRC 3F3B4D9A
Track not present in AccurateRip database
Copy OK

Track 4

Filename K:\flacs from cd's and cd-r's\Country\Kitty Wells\The Queen Of Country Music [4 disc set]\disc 4\4-04 Touch And Go Heart 1958.wav

Pre-gap length 0:00:03.40

Peak level 72.2 %
Track quality 100.0 %
Test CRC E5E6EAB6
Copy CRC E5E6EAB6
Track not present in AccurateRip database
Copy OK

Track 5

Filename K:\flacs from cd's and cd-r's\Country\Kitty Wells\The Queen Of Country Music [4 disc set]\disc 4\4-05 My Used To Be Darling 1959.wav

Pre-gap length 0:00:03.40

Peak level 78.6 %
Track quality 99.9 %
Test CRC 6BBC7A39
Copy CRC 6BBC7A39
Track not present in AccurateRip database
Copy OK

Track 6

Filename K:\flacs from cd's and cd-r's\Country\Kitty Wells\The Queen Of Country Music [4 disc set]\disc 4\4-06 (I'll Always Be Your) Fraulein 1957.wav

Pre-gap length 0:00:03.66

Peak level 75.5 %
Track quality 100.0 %
Test CRC D9D87393
Copy CRC D9D87393
Track not present in AccurateRip database
Copy OK

Track 7

Filename K:\flacs from cd's and cd-r's\Country\Kitty Wells\The Queen Of Country Music [4 disc set]\disc 4\4-07 Love Me To Pieces 1958.wav

Pre-gap length 0:00:02.40

Peak level 83.5 %
Track quality 100.0 %
Test CRC 41E77F9F
Copy CRC 41E77F9F
Track not present in AccurateRip database
Copy OK

Track 8

Filename K:\flacs from cd's and cd-r's\Country\Kitty Wells\The Queen Of Country Music [4 disc set]\disc 4\4-08 What I Believe Dear (Is All Up To You) 1957.wav

Pre-gap length 0:00:03.40

Peak level 77.8 %
Track quality 100.0 %
Test CRC 245C8A1C
Copy CRC 245C8A1C
Track not present in AccurateRip database
Copy OK

Track 9

Filename K:\flacs from cd's and cd-r's\Country\Kitty Wells\The Queen Of Country Music [4 disc set]\disc 4\4-09 I Can't Stop Loving You 1958.wav

Pre-gap length 0:00:02.50

Peak level 83.2 %
Track quality 100.0 %
Test CRC 907A07CC
Copy CRC 907A07CC
Track not present in AccurateRip database
Copy OK

Track 10

Filename K:\flacs from cd's and cd-r's\Country\Kitty Wells\The Queen Of Country Music [4 disc set]\disc 4\4-10 Slowly Dying 1987.wav

Pre-gap length 0:00:03.33

Peak level 87.2 %
Track quality 100.0 %
Test CRC 26E1A73E
Copy CRC 26E1A73E
Track not present in AccurateRip database
Copy OK

Track 11

Filename K:\flacs from cd's and cd-r's\Country\Kitty Wells\The Queen Of Country Music [4 disc set]\disc 4\4-11 I Can't Help Wondering 1958.wav

Pre-gap length 0:00:03.66

Peak level 72.8 %
Track quality 99.9 %
Test CRC 9FB2C3EF
Copy CRC 9FB2C3EF
Track not present in AccurateRip database
Copy OK

Track 12

Filename K:\flacs from cd's and cd-r's\Country\Kitty Wells\The Queen Of Country Music [4 disc set]\disc 4\4-12 He's Lost His Love For Me 1958.wav

Pre-gap length 0:00:03.10

Peak level 73.0 %
Track quality 100.0 %
Test CRC D31BDBAD
Copy CRC D31BDBAD
Track not present in AccurateRip database
Copy OK

Track 13

Filename K:\flacs from cd's and cd-r's\Country\Kitty Wells\The Queen Of Country Music [4 disc set]\disc 4\4-13 Jealousy 1958.wav

Pre-gap length 0:00:03.13

Peak level 81.6 %
Track quality 100.0 %
Test CRC D8C956DB
Copy CRC D8C956DB
Track not present in AccurateRip database
Copy OK

Track 14

Filename K:\flacs from cd's and cd-r's\Country\Kitty Wells\The Queen Of Country Music [4 disc set]\disc 4\4-14 Mommy For A Day 1958.wav

Pre-gap length 0:00:02.73

Peak level 79.9 %
Track quality 100.0 %
Test CRC D04D8C41
Copy CRC D04D8C41
Track not present in AccurateRip database
Copy OK

Track 15

Filename K:\flacs from cd's and cd-r's\Country\Kitty Wells\The Queen Of Country Music [4 disc set]\disc 4\4-15 The Hands You're Holding Now 1958.wav

Pre-gap length 0:00:02.93

Peak level 76.8 %
Track quality 100.0 %
Test CRC DB8B40E9
Copy CRC DB8B40E9
Track not present in AccurateRip database
Copy OK

Track 16

Filename K:\flacs from cd's and cd-r's\Country\Kitty Wells\The Queen Of Country Music [4 disc set]\disc 4\4-16 Let Me Help You Forget 1958.wav

Peak level 75.7 %
Track quality 100.0 %
Test CRC 4415679B
Copy CRC 4415679B
Track not present in AccurateRip database
Copy OK

Track 17

Filename K:\flacs from cd's and cd-r's\Country\Kitty Wells\The Queen Of Country Music [4 disc set]\disc 4\4-17 All The Time 1958.wav

Peak level 72.3 %
Track quality 100.0 %
Test CRC 7A675CBA
Copy CRC 7A675CBA
Track not present in AccurateRip database
Copy OK

Track 18

Filename K:\flacs from cd's and cd-r's\Country\Kitty Wells\The Queen Of Country Music [4 disc set]\disc 4\4-18 Dust On The Bible 1958.wav

Peak level 72.6 %
Track quality 99.9 %
Test CRC BF285EDE
Copy CRC BF285EDE
Track not present in AccurateRip database
Copy OK

Track 19

Filename K:\flacs from cd's and cd-r's\Country\Kitty Wells\The Queen Of Country Music [4 disc set]\disc 4\4-19 (I've Got My) One Way Ticket To The Sky 1958.wav

Peak level 80.6 %
Track quality 100.0 %
Test CRC 8D292D00
Copy CRC 8D292D00
Track not present in AccurateRip database
Copy OK

Track 20

Filename K:\flacs from cd's and cd-r's\Country\Kitty Wells\The Queen Of Country Music [4 disc set]\disc 4\4-20 I Heard My Saviour Call 1958.wav

Peak level 77.5 %
Track quality 100.0 %
Test CRC 39325275
Copy CRC 39325275
Track not present in AccurateRip database
Copy OK

Track 21

Filename K:\flacs from cd's and cd-r's\Country\Kitty Wells\The Queen Of Country Music [4 disc set]\disc 4\4-21 I Dreamed I Searched Heaven For You 1958.wav

Peak level 79.1 %
Track quality 100.0 %
Test CRC F142E1D9
Copy CRC F142E1D9
Track not present in AccurateRip database
Copy OK

Track 22

Filename K:\flacs from cd's and cd-r's\Country\Kitty Wells\The Queen Of Country Music [4 disc set]\disc 4\4-22 The Great Speckled Bird 1958.wav

Peak level 79.2 %
Track quality 100.0 %
Test CRC B38AE6A1
Copy CRC B38AE6A1
Track not present in AccurateRip database
Copy OK

Track 23

Filename K:\flacs from cd's and cd-r's\Country\Kitty Wells\The Queen Of Country Music [4 disc set]\disc 4\4-23 Matthew Twenty-Four 1958.wav

Peak level 78.4 %
Track quality 100.0 %
Test CRC DE3947D4
Copy CRC DE3947D4
Track not present in AccurateRip database
Copy OK

Track 24

Filename K:\flacs from cd's and cd-r's\Country\Kitty Wells\The Queen Of Country Music [4 disc set]\disc 4\4-24 I Need The Prayers 1958.wav

Peak level 79.7 %
Track quality 100.0 %
Test CRC CFD196A9
Copy CRC CFD196A9
Track not present in AccurateRip database
Copy OK

Track 25

Filename K:\flacs from cd's and cd-r's\Country\Kitty Wells\The Queen Of Country Music [4 disc set]\disc 4\4-25 My Loved Ones Are Waiting For Me 1958.wav

Peak level 77.2 %
Track quality 100.0 %
Test CRC E874B6F0
Copy CRC E874B6F0
Track not present in AccurateRip database
Copy OK

Track 26

Filename K:\flacs from cd's and cd-r's\Country\Kitty Wells\The Queen Of Country Music [4 disc set]\disc 4\4-26 Lord I'm Coming Home 1958.wav

Peak level 77.7 %
Track quality 99.9 %
Test CRC A4493EC3
Copy CRC A4493EC3
Track not present in AccurateRip database
Copy OK

Track 27

Filename K:\flacs from cd's and cd-r's\Country\Kitty Wells\The Queen Of Country Music [4 disc set]\disc 4\4-27 He Will Set Your Fields On Fire 1958.wav

Peak level 78.4 %
Track quality 99.9 %
Test CRC 7977E598
Copy CRC 7977E598
Track not present in AccurateRip database
Copy OK

Track 28

Filename K:\flacs from cd's and cd-r's\Country\Kitty Wells\The Queen Of Country Music [4 disc set]\disc 4\4-28 Lonesome Valley 1958.wav

Peak level 79.5 %
Track quality 100.0 %
Test CRC 1AA94050
Copy CRC 1AA94050
Track not present in AccurateRip database
Copy OK

Track 29

Filename K:\flacs from cd's and cd-r's\Country\Kitty Wells\The Queen Of Country Music [4 disc set]\disc 4\4-29 We Buried Her Beneath The Willows 1958.wav

Peak level 78.8 %
Track quality 100.0 %
Test CRC 707B2E71
Copy CRC 707B2E71
Track not present in AccurateRip database
Copy OK


None of the tracks are present in the AccurateRip database

No errors occurred

End of status report

foobar2000 1.2 / Dynamic Range Meter 1.1.1
log date: 2018-03-01 21:44:21

––––––––––––––––––––––––––––––––––––––––
Analyzed: Kitty Wells / The Queen Of Country Music Disc 4
––––––––––––––––––––––––––––––––––––––––

DR Peak RMS Duration Track
––––––––––––––––––––––––––––––––––––––––
DR11 -1.82 dB -15.34 dB 2:39 01-4-01 What About You 1958
DR12 -0.37 dB -15.76 dB 2:27 02-4-02 May You Never Be Alone 1958
DR11 -2.00 dB -14.98 dB 2:41 03-4-03 If Teardrops Were Pennies 1958
DR11 -2.82 dB -15.96 dB 2:47 04-4-04 Touch And Go Heart 1958
DR12 -2.08 dB -16.47 dB 2:27 05-4-05 My Used To Be Darling 1959
DR9 -2.44 dB -14.34 dB 2:50 06-4-06 (I'll Always Be Your) Fraulein 1957
DR10 -1.56 dB -13.56 dB 2:12 07-4-07 Love Me To Pieces 1958
DR10 -2.18 dB -14.97 dB 2:17 08-4-08 What I Believe Dear (Is All Up To You) 1957
DR11 -1.59 dB -14.95 dB 2:15 09-4-09 I Can't Stop Loving You 1958
DR11 -1.19 dB -15.34 dB 2:47 10-4-10 Slowly Dying 1987
DR10 -2.75 dB -15.58 dB 2:10 11-4-11 I Can't Help Wondering 1958
DR11 -2.72 dB -16.48 dB 2:18 12-4-12 He's Lost His Love For Me 1958
DR12 -1.76 dB -16.25 dB 2:30 13-4-13 Jealousy 1958
DR13 -1.94 dB -17.29 dB 2:31 14-4-14 Mommy For A Day 1958
DR14 -2.29 dB -18.43 dB 2:28 15-4-15 The Hands You're Holding Now 1958
DR13 -2.42 dB -17.45 dB 2:42 16-4-16 Let Me Help You Forget 1958
DR11 -2.81 dB -17.29 dB 2:39 17-4-17 All The Time 1958
DR12 -2.78 dB -16.80 dB 2:18 18-4-18 Dust On The Bible 1958
DR12 -1.86 dB -16.12 dB 2:38 19-4-19 (I've Got My) One Way Ticket To The Sky 1958
DR12 -2.21 dB -16.16 dB 2:07 20-4-20 I Heard My Saviour Call 1958
DR12 -2.03 dB -16.05 dB 2:35 21-4-21 I Dreamed I Searched Heaven For You 1958
DR12 -2.02 dB -15.84 dB 2:23 22-4-22 The Great Speckled Bird 1958
DR13 -2.11 dB -17.00 dB 2:04 23-4-23 Matthew Twenty-Four 1958
DR12 -1.96 dB -16.63 dB 2:30 24-4-24 I Need The Prayers 1958
DR13 -2.24 dB -18.02 dB 2:28 25-4-25 My Loved Ones Are Waiting For Me 1958
DR13 -2.18 dB -18.85 dB 2:22 26-4-26 Lord I'm Coming Home 1958
DR11 -2.10 dB -14.77 dB 2:24 27-4-27 He Will Set Your Fields On Fire 1958
DR10 -1.99 dB -15.03 dB 2:21 28-4-28 Lonesome Valley 1958
DR11 -2.06 dB -15.40 dB 2:24 29-4-29 We Buried Her Beneath The Willows 1958
––––––––––––––––––––––––––––––––––––––––

Number of tracks: 29
Official DR value: DR12

Samplerate: 44100 Hz
Channels: 2
Bits per sample: 16
Bitrate: 787 kbps
Codec: FLAC
================================================================================

Kitty Wells - The Queen Of Country Music, 1949-1958 (1993) 4 CD Box Set

All thanks to original releaser

More interesting music in My Blog