Subcategories

Klaus Schulze & Pete Namlook - The Dark Side Of The Moog Vol. 5-8 (2016) {5CD Box Set, Limited Edition, Reissue}

Posted By: popsakov
Klaus Schulze & Pete Namlook - The Dark Side Of The Moog Vol. 5-8 (2016) {5CD Box Set, Limited Edition, Reissue}

Klaus Schulze & Pete Namlook - The Dark Side Of The Moog Vol. 5-8 (2016)
5CD | EAC Rip | FLAC (Img) + Cue + Log ~ 1,67 Gb | MP3 CBR320 ~ 679 Mb
Scans (JPG, 300 dpi) ~ 27 Mb | RAR 5% Recovery
Electronic, Ambient, Trance, Techno | MIG-Music #MIG 01392

Complex re-release of the most remarkable and worldwide sought afterSeries The Dark Side Of The Moog by German electronic pioneers Klaus Schulze and Pete Namlook (aka Peter Kuhlmann) in three slip lid boxsets, each with 5 CDs, incl. bonus material and new linernotes. The second box contains Vol. 5 to Vol. 8 and the Bonus CD. Their relationship between Klaus and Pete and the exchange of ideas was unorthodox from the beginning of their co-operation, in that they rarely met personally. The most remarkable contacts they had were outside of their studios, for instance their concert of April 1999 at the Jazz Festival in Hamburg , which was released as an edited version on 'Dark Side Of The Moog, Vol.8' (will be released in the second Boxset) - the interplay and chemistry between them is clearly evident, and it becomes even clearer on the un-edited version of the concert (which will be released as bonus CS on the third boxset).

In 1994, Klaus Schulze was able to look back on a long, successful and highly influential career, but he was also able to embrace the new. He was in the midst of his 'digital phase', fascinated by sampling technology, and had a clear idea of where he could go with the technology, which resulted in albums like 'Beyond Recall'; the Royal Festival Hall recordings; 'The Dome Event' and even to an extent his opera 'Totentag'. By contrast Peter Kuhlman a.k.a Pete Namlook had just started. In 1992 he had founded the seminal Fax label, which was both a vehicle for his own recordings and a chance to collaborate and release recordings from like-minded musicians from around the world: Robert Görl of DAF; Geir Jenssen of Biosphere fame; the ever-eclectic Bill Laswell; Ritchie Hawtin; Lorenzo Montanà; Gabriel Le Mar; Dr. Atmo and David Moufang to name just a few. In an interview from 2002, Pete remembered: "In fact, the detonation was 'Air II' - the spacey part of the track 'Travelling Without Moving' enthused Klaus. He wanted us to start to work together at once. It was the music that was of importance to him. Although Klaus had had no interest in working together before on principle, I knew I could convince him with my music. That was the key of our co-operation. The track was in a sort of Schulze/Tangerine Dream style with it's analogue synthi-bass sequences; it became apparent to both of us that we should approach things with analogue tools first of all. Although it wasn't so easy initially, the musical result finally convinced him. I didn't want to do just a remake of seventies space-music - I intended to meld it with the beats and sounds of today's electronic music, and I think we succeeded." Klaus Schulze: "The whole series was a very unpretentious project. Because I had always kept total control with my own albums, I let Pete take it off my hands and could make compromises. That was juicy for me, 'cause I don't work with other electronic musicians usually. It was a total different chemistry compared to say Manuel Goettsching, who I understand completely. From that point of view it was a real challenge. I never could work with somebody like me, I'd rather do it on my own. The few people I have worked with, like Rainer Bloss, had to have strong egos to prevent themselves being dominated by me. Namlook once said, my music was often too emotional from his point of view. Namlook is much more rational than me, that's why I always kidded him with the nickname 'the banker' - but this oppositional aspect made it exciting for me. I need people who work contrariwise. Work on 'Dark Side Of The Moog' started without any solid intention and wasn't planned as a series at all. There was only the aim that it didn't sound like 'Schulze' only, so I decided that Namlook had to make the final mix." The influence Namlook had on Klaus's music in the middle of the nineties should not be taken lightly, because although Klaus dearly loved those early analogue elements from his own music, they had become, to an extent, lost. It was Pete who fortified him to go back to the analogue charm of his early albums and it was Pete who supported him in the modification of his analogue instruments, leading finally to the epoch-making Schulze album from 1996 - "Are You Sequenced?" For Namlook, the curiosity of Klaus Schulze and their collaboration on a level playing field of mutual respect was inspiring: And so a legendary series of recordings was born. 'Dark Side Of The Moog' grew more or less unplanned to a sprawling, stately-sized series of eleven volumes recorded between 1994 and 2008, only ending with the early, tragic death of Pete on November 8th 2012. Retrospectively, the approach to and exchange of music and ideas, the growing together and cross-pollination of emotion and logic, makes for a rewarding and fascinating listening experience that still holds its own today.
Klaus Schulze & Pete Namlook - The Dark Side Of The Moog Vol. 5-8 (2016) {5CD Box Set, Limited Edition, Reissue}


***************

Klaus Schulze & Pete Namlook - The Dark Side Of The Moog Vol. 5-8 (2016) {5CD Box Set, Limited Edition, Reissue}

Klaus Schulze & Pete Namlook - The Dark Side Of The Moog Vol. 5-8 (2016) {5CD Box Set, Limited Edition, Reissue}

Track List CD5 - The Dark Side Of The Moog Vol. 5:

01. Psychedelic Brunch (Part I) [00:15]
02. Psychedelic Brunch (Part II) [04:31]
03. Psychedelic Brunch (Part III) [featuring Bill Laswell] [08:30]
04. Psychedelic Brunch (Part IV) [03:46]
05. Psychedelic Brunch (Part V) [16:22]
06. Psychedelic Brunch (Part VI) [featuring Bill Laswell] [08:44]
07. Psychedelic Brunch (Part VII) [09:50]
08. Psychedelic Brunch (Part VIII) [08:21]

Exact Audio Copy V1.1 from 23. June 2015

EAC extraction logfile from 26. March 2016, 7:27

Pete Namlook & Klaus Schulze / The Dark Side of the Moog 5

Used drive : PIONEER BD-RW BDR-209D Adapter: 0 ID: 5

Read mode : Secure
Utilize accurate stream : Yes
Defeat audio cache : Yes
Make use of C2 pointers : No

Read offset correction : 667
Overread into Lead-In and Lead-Out : No
Fill up missing offset samples with silence : Yes
Delete leading and trailing silent blocks : No
Null samples used in CRC calculations : Yes
Used interface : Installed external ASPI interface

Used output format : User Defined Encoder
Selected bitrate : 768 kBit/s
Quality : High
Add ID3 tag : No
Command line compressor : C:\Program Files (x86)\Exact Audio Copy\FLAC\FLAC.EXE
Additional command line options : -6 -V -T "ARTIST=%artist%" -T "TITLE=%title%" -T "ALBUM=%albumtitle%" -T "DATE=%year%" -T "TRACKNUMBER=%tracknr%" -T "GENRE=%genre%" -T "COMMENT=%comment%" -T "BAND=%albuminterpret%" -T "ALBUMARTIST=%albuminterpret%" -T "COMPOSER=%composer%" %haslyrics%–tag-from-file=LYRICS="%lyricsfile%"%haslyrics% -T "DISCNUMBER=%cdnumber%" -T "TOTALDISCS=%totalcds%" -T "TOTALTRACKS=%numtracks%" %hascover%–picture="%coverfile%"%hascover% %source% -o %dest%


TOC of the extracted CD

Track | Start | Length | Start sector | End sector
––––––––––––––––––––––––––––-
1 | 0:00.00 | 0:14.69 | 0 | 1118
2 | 0:14.69 | 4:30.10 | 1119 | 21378
3 | 4:45.04 | 8:29.41 | 21379 | 59594
4 | 13:14.45 | 3:45.53 | 59595 | 76522
5 | 17:00.23 | 16:21.16 | 76523 | 150113
6 | 33:21.39 | 8:43.57 | 150114 | 189395
7 | 42:05.21 | 9:49.70 | 189396 | 233640
8 | 51:55.16 | 8:20.12 | 233641 | 271152


Range status and errors

Selected range

Filename E:\MUSIC\Pete Namlook & Klaus Schulze - The Dark Side of the Moog 5.wav

Peak level 100.0 %
Extraction speed 8.1 X
Range quality 100.0 %
Test CRC 932923A4
Copy CRC 932923A4
Copy OK

No errors occurred


AccurateRip summary

Track 1 not present in database
Track 2 not present in database
Track 3 not present in database
Track 4 not present in database
Track 5 not present in database
Track 6 not present in database
Track 7 not present in database
Track 8 not present in database

None of the tracks are present in the AccurateRip database

End of status report

==== Log checksum D082F2D66E07C1C31F03B8B8EC26EBA6812E1C44601E8261C1B7DA71FE158466 ====

foobar2000 1.2.6 / Dynamic Range Meter 1.1.1
log date: 2016-04-01 12:11:38

––––––––––––––––––––––––––––––––––––––––
Analyzed: Pete Namlook & Klaus Schulze / The Dark Side of the Moog 5
––––––––––––––––––––––––––––––––––––––––

DR Peak RMS Duration Track
––––––––––––––––––––––––––––––––––––––––
DR14 -4.30 dB -21.06 dB 0:15 01-Psychedelic Brunch (Part I)
DR10 0.00 dB -13.15 dB 4:30 02-Psychedelic Brunch (Part II)
DR9 0.00 dB -12.05 dB 8:30 03-Psychedelic Brunch (Part III) [featuring Bill Laswell]
DR11 -2.85 dB -17.26 dB 3:46 04-Psychedelic Brunch (Part IV)
DR11 -0.16 dB -14.66 dB 16:21 05-Psychedelic Brunch (Part V)
DR10 0.00 dB -15.16 dB 8:44 06-Psychedelic Brunch (Part VI) [featuring Bill Laswell]
DR12 0.00 dB -17.34 dB 9:50 07-Psychedelic Brunch (Part VII)
DR10 0.00 dB -13.92 dB 8:20 08-Psychedelic Brunch (Part VIII)
––––––––––––––––––––––––––––––––––––––––

Number of tracks: 8
Official DR value: DR11

Samplerate: 44100 Hz
Channels: 2
Bits per sample: 16
Bitrate: 684 kbps
Codec: FLAC
================================================================================

[CUETools log; Date: 01.04.2016 12:11:40; Version: 2.1.5]
[CTDB TOCID: KlUJds7fG5k4mSebSpE6Kbjewxg-] found.
Track | CTDB Status
1 | (8/8) Accurately ripped
2 | (8/8) Accurately ripped
3 | (8/8) Accurately ripped
4 | (8/8) Accurately ripped
5 | (8/8) Accurately ripped
6 | (8/8) Accurately ripped
7 | (8/8) Accurately ripped
8 | (8/8) Accurately ripped
[AccurateRip ID: 000f4da8-006e3824-560e1f08] disk not present in database.

Track Peak [ CRC32 ] [W/O NULL] [ LOG ]
– 100,0 [932923A4] [8A48A231] CRC32
01 60,9 [C8E06250] [EADEFEE4]
02 100,0 [55891895] [22B2A625]
03 100,0 [821366C2] [73EBB714]
04 71,9 [63D461B4] [4074FD0F]
05 98,1 [B095B557] [497CB869]
06 100,0 [D501C9F7] [FB15ECEB]
07 100,0 [86567318] [4D4CF391]
08 100,0 [609704E1] [BF80EA4C]

Klaus Schulze & Pete Namlook - The Dark Side Of The Moog Vol. 5-8 (2016) {5CD Box Set, Limited Edition, Reissue}

Klaus Schulze & Pete Namlook - The Dark Side Of The Moog Vol. 5-8 (2016) {5CD Box Set, Limited Edition, Reissue}

Track List CD6 - The Dark Side Of The Moog Vol. 6:

01. The Final DAT (part I) [07:56]
02. The Final DAT (part II) [07:09]
03. The Final DAT (part III) [04:42]
04. The Final DAT (part IV) [featuring Bill Laswell] [09:42]
05. The Final DAT (part V) [24:10]
06. The Final DAT (part VI) [10:41]

Exact Audio Copy V1.1 from 23. June 2015

EAC extraction logfile from 26. March 2016, 0:07

Pete Namlook & Klaus Schulze / The Dark Side of the Moog 6

Used drive : PIONEER BD-RW BDR-209D Adapter: 0 ID: 5

Read mode : Secure
Utilize accurate stream : Yes
Defeat audio cache : Yes
Make use of C2 pointers : No

Read offset correction : 667
Overread into Lead-In and Lead-Out : No
Fill up missing offset samples with silence : Yes
Delete leading and trailing silent blocks : No
Null samples used in CRC calculations : Yes
Used interface : Installed external ASPI interface

Used output format : User Defined Encoder
Selected bitrate : 768 kBit/s
Quality : High
Add ID3 tag : No
Command line compressor : C:\Program Files (x86)\Exact Audio Copy\FLAC\FLAC.EXE
Additional command line options : -6 -V -T "ARTIST=%artist%" -T "TITLE=%title%" -T "ALBUM=%albumtitle%" -T "DATE=%year%" -T "TRACKNUMBER=%tracknr%" -T "GENRE=%genre%" -T "COMMENT=%comment%" -T "BAND=%albuminterpret%" -T "ALBUMARTIST=%albuminterpret%" -T "COMPOSER=%composer%" %haslyrics%–tag-from-file=LYRICS="%lyricsfile%"%haslyrics% -T "DISCNUMBER=%cdnumber%" -T "TOTALDISCS=%totalcds%" -T "TOTALTRACKS=%numtracks%" %hascover%–picture="%coverfile%"%hascover% %source% -o %dest%


TOC of the extracted CD

Track | Start | Length | Start sector | End sector
––––––––––––––––––––––––––––-
1 | 0:00.00 | 7:55.30 | 0 | 35654
2 | 7:55.30 | 7:08.59 | 35655 | 67813
3 | 15:04.14 | 4:41.58 | 67814 | 88946
4 | 19:45.72 | 9:41.25 | 88947 | 132546
5 | 29:27.22 | 24:09.08 | 132547 | 241229
6 | 53:36.30 | 10:40.60 | 241230 | 289289


Range status and errors

Selected range

Filename E:\MUSIC\Pete Namlook & Klaus Schulze - The Dark Side of the Moog 6.wav

Peak level 100.0 %
Extraction speed 8.1 X
Range quality 99.9 %
Test CRC 583A7B03
Copy CRC 583A7B03
Copy OK

No errors occurred


AccurateRip summary

Track 1 not present in database
Track 2 not present in database
Track 3 not present in database
Track 4 not present in database
Track 5 not present in database
Track 6 not present in database

None of the tracks are present in the AccurateRip database

End of status report

==== Log checksum 61650C35D7538CE5094714D4C9156002ADAF409037A94008B2A56EC6858CCFC0 ====

foobar2000 1.2.6 / Dynamic Range Meter 1.1.1
log date: 2016-04-01 12:23:21

––––––––––––––––––––––––––––––––––––––––
Analyzed: Pete Namlook & Klaus Schulze / The Dark Side of the Moog 6
––––––––––––––––––––––––––––––––––––––––

DR Peak RMS Duration Track
––––––––––––––––––––––––––––––––––––––––
DR12 0.00 dB -16.29 dB 7:55 01-The Final DAT (part I)
DR10 -0.70 dB -13.50 dB 7:09 02-The Final DAT (part II)
DR10 0.00 dB -12.67 dB 4:42 03-The Final DAT (part III)
DR9 0.00 dB -12.41 dB 9:41 04-The Final DAT (part IV) [featuring Bill Laswell]
DR13 0.00 dB -15.64 dB 24:09 05-The Final DAT (part V)
DR11 0.00 dB -14.65 dB 10:41 06-The Final DAT (part VI)
––––––––––––––––––––––––––––––––––––––––

Number of tracks: 6
Official DR value: DR11

Samplerate: 44100 Hz
Channels: 2
Bits per sample: 16
Bitrate: 803 kbps
Codec: FLAC
================================================================================

[CUETools log; Date: 01.04.2016 12:22:48; Version: 2.1.5]
[CTDB TOCID: ZKrGqonn.4pQNqau882zN8UIbHQ-] found.
Track | CTDB Status
1 | (8/8) Accurately ripped
2 | (8/8) Accurately ripped
3 | (8/8) Accurately ripped
4 | (8/8) Accurately ripped
5 | (8/8) Accurately ripped
6 | (8/8) Accurately ripped
[AccurateRip ID: 000d0dbb-0048b7f6-590f1106] disk not present in database.

Track Peak [ CRC32 ] [W/O NULL] [ LOG ]
– 100,0 [583A7B03] [E31857DC] CRC32
01 100,0 [E4D8ECE9] [93F8A08D]
02 92,2 [1AC0BC92] [556630EE]
03 100,0 [4454AE97] [5121D541]
04 100,0 [837F0D43] [19D2FB08]
05 100,0 [29A761D5] [331FF831]
06 100,0 [01364E68] [C9CA6F91]

Klaus Schulze & Pete Namlook - The Dark Side Of The Moog Vol. 5-8 (2016) {5CD Box Set, Limited Edition, Reissue}

Klaus Schulze & Pete Namlook - The Dark Side Of The Moog Vol. 5-8 (2016) {5CD Box Set, Limited Edition, Reissue}

Track List CD7 - The Dark Side Of The Moog Vol. 7:

01. Obscured by Klaus I [05:02]
02. Obscured by Klaus II [07:25]
03. Obscured by Klaus III [19:01]
04. Obscured by Klaus IV [06:35]
05. Obscured by Klaus V [03:43]
06. Obscured by Klaus VI [08:10]

Exact Audio Copy V1.1 from 23. June 2015

EAC extraction logfile from 26. March 2016, 7:05

Pete Namlook & Klaus Schulze / The Dark Side Of The Moog 7

Used drive : PIONEER BD-RW BDR-209D Adapter: 0 ID: 5

Read mode : Secure
Utilize accurate stream : Yes
Defeat audio cache : Yes
Make use of C2 pointers : No

Read offset correction : 667
Overread into Lead-In and Lead-Out : No
Fill up missing offset samples with silence : Yes
Delete leading and trailing silent blocks : No
Null samples used in CRC calculations : Yes
Used interface : Installed external ASPI interface

Used output format : User Defined Encoder
Selected bitrate : 768 kBit/s
Quality : High
Add ID3 tag : No
Command line compressor : C:\Program Files (x86)\Exact Audio Copy\FLAC\FLAC.EXE
Additional command line options : -6 -V -T "ARTIST=%artist%" -T "TITLE=%title%" -T "ALBUM=%albumtitle%" -T "DATE=%year%" -T "TRACKNUMBER=%tracknr%" -T "GENRE=%genre%" -T "COMMENT=%comment%" -T "BAND=%albuminterpret%" -T "ALBUMARTIST=%albuminterpret%" -T "COMPOSER=%composer%" %haslyrics%–tag-from-file=LYRICS="%lyricsfile%"%haslyrics% -T "DISCNUMBER=%cdnumber%" -T "TOTALDISCS=%totalcds%" -T "TOTALTRACKS=%numtracks%" %hascover%–picture="%coverfile%"%hascover% %source% -o %dest%


TOC of the extracted CD

Track | Start | Length | Start sector | End sector
––––––––––––––––––––––––––––-
1 | 0:00.00 | 5:01.20 | 0 | 22594
2 | 5:01.20 | 7:24.74 | 22595 | 55968
3 | 12:26.19 | 19:00.69 | 55969 | 141537
4 | 31:27.13 | 6:34.64 | 141538 | 171151
5 | 38:02.02 | 3:42.19 | 171152 | 187820
6 | 41:44.21 | 8:09.58 | 187821 | 224553


Range status and errors

Selected range

Filename E:\MUSIC\Pete Namlook & Klaus Schulze - The Dark Side Of The Moog 7.wav

Peak level 99.3 %
Extraction speed 7.7 X
Range quality 100.0 %
Test CRC D94B2631
Copy CRC D94B2631
Copy OK

No errors occurred


AccurateRip summary

Track 1 not present in database
Track 2 not present in database
Track 3 not present in database
Track 4 not present in database
Track 5 not present in database
Track 6 not present in database

None of the tracks are present in the AccurateRip database

End of status report

==== Log checksum C5BBC64721E4C3C15B2C6DCCB75010566199D549412F19D2886769C2BA9D163D ====

foobar2000 1.2.6 / Dynamic Range Meter 1.1.1
log date: 2016-04-01 12:26:17

––––––––––––––––––––––––––––––––––––––––
Analyzed: Pete Namlook & Klaus Schulze / The Dark Side Of The Moog 7
––––––––––––––––––––––––––––––––––––––––

DR Peak RMS Duration Track
––––––––––––––––––––––––––––––––––––––––
DR8 -0.49 dB -11.65 dB 5:01 01-Obscured by Klaus I
DR6 -0.06 dB -7.29 dB 7:25 02-Obscured by Klaus II
DR10 -0.64 dB -14.06 dB 19:01 03-Obscured by Klaus III
DR6 -0.06 dB -7.85 dB 6:35 04-Obscured by Klaus IV
DR11 -2.74 dB -16.56 dB 3:42 05-Obscured by Klaus V
DR8 -0.51 dB -11.80 dB 8:10 06-Obscured by Klaus VI
––––––––––––––––––––––––––––––––––––––––

Number of tracks: 6
Official DR value: DR8

Samplerate: 44100 Hz
Channels: 2
Bits per sample: 16
Bitrate: 753 kbps
Codec: FLAC
================================================================================

[CUETools log; Date: 01.04.2016 12:26:16; Version: 2.1.5]
[CTDB TOCID: 7ByZE2.Cn5FoyU9SV.v3TxRJNDc-] found.
Track | CTDB Status
1 | (8/8) Accurately ripped
2 | (8/8) Accurately ripped
3 | (8/8) Accurately ripped
4 | (8/8) Accurately ripped
5 | (8/8) Accurately ripped
6 | (8/8) Accurately ripped
[AccurateRip ID: 000c432d-004220f6-520bb206] disk not present in database.

Track Peak [ CRC32 ] [W/O NULL] [ LOG ]
– 99,3 [D94B2631] [3428C329] CRC32
01 94,4 [31322858] [0C6F1B9F]
02 99,2 [DC40B151] [0629D238]
03 92,9 [1FCE032E] [BCA6F35C]
04 99,3 [FF921551] [5C2849F4]
05 72,9 [CE2C0544] [BA370D57]
06 94,2 [D6B2A0BA] [C54C561C]

Klaus Schulze & Pete Namlook - The Dark Side Of The Moog Vol. 5-8 (2016) {5CD Box Set, Limited Edition, Reissue}

Klaus Schulze & Pete Namlook - The Dark Side Of The Moog Vol. 5-8 (2016) {5CD Box Set, Limited Edition, Reissue}

Track List CD8 - The Dark Side Of The Moog Vol. 8:

01. Careful with the AKS, Peter (Part I) [25:17]
02. Careful with the AKS, Peter (Part II) [01:13]
03. Careful with the AKS, Peter (Part III) [06:19]
04. Careful with the AKS, Peter (Part IV) [08:09]
05. Careful with the AKS, Peter (Part V) [04:36]
06. Careful with the AKS, Peter (Part VI) [15:40]
07. Careful with the AKS, Peter (Part VII) [06:59]
08. Careful with the AKS, Peter (Part VIII) [08:40]

Exact Audio Copy V1.1 from 23. June 2015

EAC extraction logfile from 26. March 2016, 6:32

Pete Namlook & Klaus Schulze / The Dark Side Of The Moog 8

Used drive : PIONEER BD-RW BDR-209D Adapter: 0 ID: 5

Read mode : Secure
Utilize accurate stream : Yes
Defeat audio cache : Yes
Make use of C2 pointers : No

Read offset correction : 667
Overread into Lead-In and Lead-Out : No
Fill up missing offset samples with silence : Yes
Delete leading and trailing silent blocks : No
Null samples used in CRC calculations : Yes
Used interface : Installed external ASPI interface

Used output format : User Defined Encoder
Selected bitrate : 768 kBit/s
Quality : High
Add ID3 tag : No
Command line compressor : C:\Program Files (x86)\Exact Audio Copy\FLAC\FLAC.EXE
Additional command line options : -6 -V -T "ARTIST=%artist%" -T "TITLE=%title%" -T "ALBUM=%albumtitle%" -T "DATE=%year%" -T "TRACKNUMBER=%tracknr%" -T "GENRE=%genre%" -T "COMMENT=%comment%" -T "BAND=%albuminterpret%" -T "ALBUMARTIST=%albuminterpret%" -T "COMPOSER=%composer%" %haslyrics%–tag-from-file=LYRICS="%lyricsfile%"%haslyrics% -T "DISCNUMBER=%cdnumber%" -T "TOTALDISCS=%totalcds%" -T "TOTALTRACKS=%numtracks%" %hascover%–picture="%coverfile%"%hascover% %source% -o %dest%


TOC of the extracted CD

Track | Start | Length | Start sector | End sector
––––––––––––––––––––––––––––-
1 | 0:00.00 | 25:16.12 | 0 | 113711
2 | 25:16.12 | 1:12.23 | 113712 | 119134
3 | 26:28.35 | 6:18.69 | 119135 | 147553
4 | 32:47.29 | 8:08.24 | 147554 | 184177
5 | 40:55.53 | 4:35.57 | 184178 | 204859
6 | 45:31.35 | 15:39.44 | 204860 | 275328
7 | 61:11.04 | 6:58.67 | 275329 | 306745
8 | 68:09.71 | 8:39.12 | 306746 | 345682


Range status and errors

Selected range

Filename E:\MUSIC\Pete Namlook & Klaus Schulze - The Dark Side Of The Moog 8.wav

Peak level 99.4 %
Extraction speed 8.7 X
Range quality 100.0 %
Test CRC 1FF2FEB4
Copy CRC 1FF2FEB4
Copy OK

No errors occurred


AccurateRip summary

Track 1 cannot be verified as accurate (confidence 11) [EFE5FA2E], AccurateRip returned [D9245C92] (AR v2)
Track 2 cannot be verified as accurate (confidence 11) [C1986D50], AccurateRip returned [C0F2CC60] (AR v2)
Track 3 cannot be verified as accurate (confidence 11) [E783F60A], AccurateRip returned [5968BF74] (AR v2)
Track 4 cannot be verified as accurate (confidence 11) [F74FC333], AccurateRip returned [CFC989FE] (AR v2)
Track 5 cannot be verified as accurate (confidence 11) [F0648F1A], AccurateRip returned [E3F024B7] (AR v2)
Track 6 cannot be verified as accurate (confidence 11) [3A7D8724], AccurateRip returned [0649DFC2] (AR v2)
Track 7 cannot be verified as accurate (confidence 11) [D58172C4], AccurateRip returned [DF71DEE4] (AR v2)
Track 8 cannot be verified as accurate (confidence 11) [EA493159], AccurateRip returned [DBF17D2A] (AR v2)

No tracks could be verified as accurate
You may have a different pressing from the one(s) in the database

End of status report

==== Log checksum A8A63979D4273F25C4C3A44608492960066139E877CF3FF4A92C9EACF90E797E ====

foobar2000 1.2.6 / Dynamic Range Meter 1.1.1
log date: 2016-04-01 12:25:46

––––––––––––––––––––––––––––––––––––––––
Analyzed: Pete Namlook & Klaus Schulze / The Dark Side Of The Moog 8
––––––––––––––––––––––––––––––––––––––––

DR Peak RMS Duration Track
––––––––––––––––––––––––––––––––––––––––
DR12 -0.06 dB -14.59 dB 25:16 01-Careful with the AKS, Peter (Part I)
DR9 -1.63 dB -14.94 dB 1:12 02-Careful with the AKS, Peter (Part II)
DR8 -0.18 dB -12.53 dB 6:19 03-Careful with the AKS, Peter (Part III)
DR7 -0.10 dB -9.62 dB 8:08 04-Careful with the AKS, Peter (Part IV)
DR7 -0.14 dB -10.11 dB 4:36 05-Careful with the AKS, Peter (Part V)
DR7 -0.10 dB -8.83 dB 15:40 06-Careful with the AKS, Peter (Part VI)
DR6 -0.05 dB -7.79 dB 6:59 07-Careful with the AKS, Peter (Part VII)
DR6 -0.05 dB -9.89 dB 8:39 08-Careful with the AKS, Peter (Part VIII)
––––––––––––––––––––––––––––––––––––––––

Number of tracks: 8
Official DR value: DR8

Samplerate: 44100 Hz
Channels: 2
Bits per sample: 16
Bitrate: 929 kbps
Codec: FLAC
================================================================================

[CUETools log; Date: 01.04.2016 12:25:48; Version: 2.1.5]
[CTDB TOCID: VvxGj7dF8cRVVceLE4rY1zM2.ho-] found.
Track | CTDB Status
1 | (16/17) Accurately ripped
2 | (16/17) Accurately ripped
3 | (16/17) Accurately ripped
4 | (16/17) Accurately ripped
5 | (16/17) Accurately ripped
6 | (16/17) Accurately ripped
7 | (16/17) Accurately ripped
8 | (16/17) Accurately ripped
[AccurateRip ID: 0019e5ad-00a50fea-7b120108] found.
Track [ CRC | V2 ] Status
01 [4a15047d|efe5fa2e] (00+00/21) No match
02 [9b8dc73c|c1986d50] (00+00/21) No match
03 [e449e20e|e783f60a] (00+00/21) No match
04 [23f3d2f0|f74fc333] (00+00/21) No match
05 [38be042b|f0648f1a] (00+00/21) No match
06 [97bb4b0b|3a7d8724] (00+00/21) No match
07 [217d39a2|d58172c4] (00+00/21) No match
08 [9fd9db3b|ea493159] (00+00/21) No match
Offsetted by -6:
01 [3ee545cc] (10/21) Accurately ripped
02 [9ab63e49] (10/21) Accurately ripped
03 [589d8de6] (10/21) Accurately ripped
04 [00091002] (10/21) Accurately ripped
05 [2e4255e9] (10/21) Accurately ripped
06 [5c4f546b] (10/21) Accurately ripped
07 [2ebd0eca] (10/21) Accurately ripped
08 [90206934] (10/21) Accurately ripped

Track Peak [ CRC32 ] [W/O NULL] [ LOG ]
– 99,4 [1FF2FEB4] [8945031D] CRC32
01 99,3 [BB3E4D68] [D06CE011]
02 82,8 [93C98B78] [1D92C036]
03 97,9 [93AA8F4A] [FE2AF14B]
04 98,8 [2F9127AC] [73A8E84D]
05 98,3 [C32D57FF] [99CF5A0C]
06 98,8 [7F141734] [A1CDD530]
07 99,4 [6D5C1E0B] [AA63D152]
08 99,3 [DBC41661] [CC226D73]

Klaus Schulze & Pete Namlook - The Dark Side Of The Moog Vol. 5-8 (2016) {5CD Box Set, Limited Edition, Reissue}

Klaus Schulze & Pete Namlook - The Dark Side Of The Moog Vol. 5-8 (2016) {5CD Box Set, Limited Edition, Reissue}

Track List Box 2 Bonus - CD:

01. Sq 1 [17:43]
02. Voices In The Dark(Chill Mix) [08:30]
03. Sq 4(Short Cut) [04:30]

Exact Audio Copy V1.1 from 23. June 2015

EAC extraction logfile from 26. March 2016, 6:45

Pete Namlook & Klaus Schulze / The Dark Side of the Moog Box 2 Bonus CD

Used drive : PIONEER BD-RW BDR-209D Adapter: 0 ID: 5

Read mode : Secure
Utilize accurate stream : Yes
Defeat audio cache : Yes
Make use of C2 pointers : No

Read offset correction : 667
Overread into Lead-In and Lead-Out : No
Fill up missing offset samples with silence : Yes
Delete leading and trailing silent blocks : No
Null samples used in CRC calculations : Yes
Used interface : Installed external ASPI interface

Used output format : User Defined Encoder
Selected bitrate : 768 kBit/s
Quality : High
Add ID3 tag : No
Command line compressor : C:\Program Files (x86)\Exact Audio Copy\FLAC\FLAC.EXE
Additional command line options : -6 -V -T "ARTIST=%artist%" -T "TITLE=%title%" -T "ALBUM=%albumtitle%" -T "DATE=%year%" -T "TRACKNUMBER=%tracknr%" -T "GENRE=%genre%" -T "COMMENT=%comment%" -T "BAND=%albuminterpret%" -T "ALBUMARTIST=%albuminterpret%" -T "COMPOSER=%composer%" %haslyrics%–tag-from-file=LYRICS="%lyricsfile%"%haslyrics% -T "DISCNUMBER=%cdnumber%" -T "TOTALDISCS=%totalcds%" -T "TOTALTRACKS=%numtracks%" %hascover%–picture="%coverfile%"%hascover% %source% -o %dest%


TOC of the extracted CD

Track | Start | Length | Start sector | End sector
––––––––––––––––––––––––––––-
1 | 0:00.00 | 17:42.43 | 0 | 79692
2 | 17:42.43 | 8:29.05 | 79693 | 117872
3 | 26:11.48 | 4:29.11 | 117873 | 138058


Range status and errors

Selected range

Filename E:\MUSIC\Pete Namlook & Klaus Schulze - The Dark Side of the Moog Box 2 Bonus CD.wav

Peak level 97.7 %
Extraction speed 6.9 X
Range quality 100.0 %
Test CRC 02E468E0
Copy CRC 02E468E0
Copy OK

No errors occurred


AccurateRip summary

Track 1 not present in database
Track 2 not present in database
Track 3 not present in database

None of the tracks are present in the AccurateRip database

End of status report

==== Log checksum F9B4B0743E5D93B10F52F83658DB0C5DD161ACB2388DEF160F9EA1C8990A8724 ====

foobar2000 1.2.6 / Dynamic Range Meter 1.1.1
log date: 2016-04-01 12:24:59

––––––––––––––––––––––––––––––––––––––––
Analyzed: Pete Namlook & Klaus Schulze / The Dark Side of the Moog Box 2 Bonus CD
––––––––––––––––––––––––––––––––––––––––

DR Peak RMS Duration Track
––––––––––––––––––––––––––––––––––––––––
DR14 -0.20 dB -16.98 dB 17:43 01-Sq 1
DR10 -0.20 dB -11.45 dB 8:29 02-Voices In The Dark(Chill Mix)
DR11 -0.20 dB -13.33 dB 4:29 03-Sq 4(Short Cut)
––––––––––––––––––––––––––––––––––––––––

Number of tracks: 3
Official DR value: DR12

Samplerate: 44100 Hz
Channels: 2
Bits per sample: 16
Bitrate: 852 kbps
Codec: FLAC
================================================================================

[CUETools log; Date: 01.04.2016 12:24:54; Version: 2.1.5]
[CTDB TOCID: RUAzIp3r_xjErXisX4uIEh3T6CU-] found.
Track | CTDB Status
1 | (7/7) Accurately ripped
2 | (7/7) Accurately ripped
3 | (7/7) Accurately ripped
[AccurateRip ID: 00051f09-0010411a-1d073003] disk not present in database.

Track Peak [ CRC32 ] [W/O NULL] [ LOG ]
– 97,7 [02E468E0] [CFE83D0E] CRC32
01 97,7 [5D7241F3] [E06476B4]
02 97,7 [94A2D776] [6643CA60]
03 97,7 [662D8631] [6C8EA9B0]

Klaus Schulze & Pete Namlook - The Dark Side Of The Moog Vol. 5-8 (2016) {5CD Box Set, Limited Edition, Reissue}

See also:
Klaus Schulze & Pete Namlook - The Dark Side Of The Moog Vol. 1-4 (2016) {5CD Box Set, Partially Mixed, Reissue}

All thanks go to RD

Visit my blog!

Download: